<?xml version="1.0" standalone="no"?>
<!DOCTYPE svg PUBLIC "-//W3C//DTD SVG 1.1//EN" "http://www.w3.org/Graphics/SVG/1.1/DTD/svg11.dtd" >
<svg xmlns="http://www.w3.org/2000/svg" xmlns:xlink="http://www.w3.org/1999/xlink" version="1.1">
<metadata>
Created by FontForge 20161013 at Fri Apr 27 17:40:54 2012
 By ,,,
Copyright Omer KOSE 2012
"LCDDot TR" is based on "LCDDot" by "Omer KOSE" (http://fontstruct.com/fontstructors/blackx)
</metadata>
<defs>
<font id="LCDDot-TR" horiz-adv-x="383" >
  <font-face 
    font-family="LCDDot TR"
    font-weight="400"
    font-stretch="normal"
    units-per-em="1024"
    panose-1="0 0 4 0 0 0 0 0 0 0"
    ascent="819"
    descent="-205"
    x-height="377"
    cap-height="505"
    bbox="-57 -57 512 512"
    underline-thickness="51"
    underline-position="26"
    unicode-range="U+0020-007A"
  />
<missing-glyph horiz-adv-x="57" 
d="M256 72v82h-82v-82h82zM337 167v82h-163v-82h163zM256 262v82h-82v-82h82zM337 357v81h-81q-34 0 -58 -23q-24 -24 -24 -58h163zM0 0v512h512v-512h-512z" />
    <glyph glyph-name=".notdef" horiz-adv-x="57" 
d="M256 72v82h-82v-82h82zM337 167v82h-163v-82h163zM256 262v82h-82v-82h82zM337 357v81h-81q-34 0 -58 -23q-24 -24 -24 -58h163zM0 0v512h512v-512h-512z" />
    <glyph glyph-name="glyph1" horiz-adv-x="0" 
 />
    <glyph glyph-name="glyph2" horiz-adv-x="128" 
 />
    <glyph glyph-name="space" unicode=" " horiz-adv-x="128" 
 />
    <glyph glyph-name="exclam" unicode="!" horiz-adv-x="128" 
d="M6 70v51h51v-51h-51zM6 198v51h51v-51h-51zM6 262v51h51v-51h-51zM6 326v51h51v-51h-51zM6 390v51h51v-51h-51zM6 454v51h51v-51h-51z" />
    <glyph glyph-name="quotedbl" unicode="&#x22;" horiz-adv-x="255" 
d="M6 390v51h51v-51h-51zM134 390v51h51v-51h-51zM6 454v51h51v-51h-51zM134 454v51h51v-51h-51z" />
    <glyph glyph-name="quotesingle" unicode="'" horiz-adv-x="128" 
d="M6 390v51h51v-51h-51zM6 454v51h51v-51h-51z" />
    <glyph glyph-name="hyphen" unicode="-" horiz-adv-x="255" 
d="M6 262v51h51v-51h-51zM70 262v51h51v-51h-51zM134 262v51h51v-51h-51z" />
    <glyph glyph-name="period" unicode="." horiz-adv-x="128" 
d="M6 70v51h51v-51h-51z" />
    <glyph glyph-name="zero" unicode="0" 
d="M70 70v51h51v-51h-51zM134 70v51h51v-51h-51zM198 70v51h51v-51h-51zM6 134v51h51v-51h-51zM262 134v51h51v-51h-51zM6 198v51h51v-51h-51zM70 198v51h51v-51h-51zM262 198v51h51v-51h-51zM6 262v51h51v-51h-51zM134 262v51h51v-51h-51zM262 262v51h51v-51h-51zM6 326v51
h51v-51h-51zM198 326v51h51v-51h-51zM262 326v51h51v-51h-51zM6 390v51h51v-51h-51zM262 390v51h51v-51h-51zM70 454v51h51v-51h-51zM134 454v51h51v-51h-51zM198 454v51h51v-51h-51z" />
    <glyph glyph-name="one" unicode="1" horiz-adv-x="255" 
d="M6 70v51h51v-51h-51zM70 70v51h51v-51h-51zM134 70v51h51v-51h-51zM70 134v51h51v-51h-51zM70 198v51h51v-51h-51zM70 262v51h51v-51h-51zM70 326v51h51v-51h-51zM6 390v51h51v-51h-51zM70 390v51h51v-51h-51zM70 454v51h51v-51h-51z" />
    <glyph glyph-name="two" unicode="2" 
d="M6 70v51h51v-51h-51zM70 70v51h51v-51h-51zM134 70v51h51v-51h-51zM198 70v51h51v-51h-51zM262 70v51h51v-51h-51zM6 134v51h51v-51h-51zM70 198v51h51v-51h-51zM134 262v51h51v-51h-51zM198 262v51h51v-51h-51zM262 326v51h51v-51h-51zM6 390v51h51v-51h-51zM262 390v51
h51v-51h-51zM70 454v51h51v-51h-51zM134 454v51h51v-51h-51zM198 454v51h51v-51h-51z" />
    <glyph glyph-name="three" unicode="3" 
d="M70 70v51h51v-51h-51zM134 70v51h51v-51h-51zM198 70v51h51v-51h-51zM6 134v51h51v-51h-51zM262 134v51h51v-51h-51zM262 198v51h51v-51h-51zM134 262v51h51v-51h-51zM198 262v51h51v-51h-51zM262 326v51h51v-51h-51zM6 390v51h51v-51h-51zM262 390v51h51v-51h-51z
M70 454v51h51v-51h-51zM134 454v51h51v-51h-51zM198 454v51h51v-51h-51z" />
    <glyph glyph-name="four" unicode="4" 
d="M198 70v51h51v-51h-51zM198 134v51h51v-51h-51zM6 198v51h51v-51h-51zM70 198v51h51v-51h-51zM134 198v51h51v-51h-51zM198 198v51h51v-51h-51zM262 198v51h51v-51h-51zM6 262v51h51v-51h-51zM198 262v51h51v-51h-51zM70 326v51h51v-51h-51zM198 326v51h51v-51h-51z
M134 390v51h51v-51h-51zM198 390v51h51v-51h-51zM198 454v51h51v-51h-51z" />
    <glyph glyph-name="five" unicode="5" 
d="M70 70v51h51v-51h-51zM134 70v51h51v-51h-51zM198 70v51h51v-51h-51zM6 134v51h51v-51h-51zM262 134v51h51v-51h-51zM262 198v51h51v-51h-51zM262 262v51h51v-51h-51zM6 326v51h51v-51h-51zM70 326v51h51v-51h-51zM134 326v51h51v-51h-51zM198 326v51h51v-51h-51zM6 390
v51h51v-51h-51zM6 454v51h51v-51h-51zM70 454v51h51v-51h-51zM134 454v51h51v-51h-51zM198 454v51h51v-51h-51zM262 454v51h51v-51h-51z" />
    <glyph glyph-name="six" unicode="6" 
d="M70 70v51h51v-51h-51zM134 70v51h51v-51h-51zM198 70v51h51v-51h-51zM6 134v51h51v-51h-51zM262 134v51h51v-51h-51zM6 198v51h51v-51h-51zM262 198v51h51v-51h-51zM6 262v51h51v-51h-51zM70 262v51h51v-51h-51zM134 262v51h51v-51h-51zM198 262v51h51v-51h-51zM6 326v51
h51v-51h-51zM6 390v51h51v-51h-51zM262 390v51h51v-51h-51zM70 454v51h51v-51h-51zM134 454v51h51v-51h-51zM198 454v51h51v-51h-51z" />
    <glyph glyph-name="seven" unicode="7" 
d="M134 70v51h51v-51h-51zM134 134v51h51v-51h-51zM134 198v51h51v-51h-51zM134 262v51h51v-51h-51zM198 326v51h51v-51h-51zM262 390v51h51v-51h-51zM6 454v51h51v-51h-51zM70 454v51h51v-51h-51zM134 454v51h51v-51h-51zM198 454v51h51v-51h-51zM262 454v51h51v-51h-51z
" />
    <glyph glyph-name="eight" unicode="8" 
d="M70 70v51h51v-51h-51zM134 70v51h51v-51h-51zM198 70v51h51v-51h-51zM6 134v51h51v-51h-51zM262 134v51h51v-51h-51zM6 198v51h51v-51h-51zM262 198v51h51v-51h-51zM70 262v51h51v-51h-51zM134 262v51h51v-51h-51zM198 262v51h51v-51h-51zM6 326v51h51v-51h-51zM262 326
v51h51v-51h-51zM6 390v51h51v-51h-51zM262 390v51h51v-51h-51zM70 454v51h51v-51h-51zM134 454v51h51v-51h-51zM198 454v51h51v-51h-51z" />
    <glyph glyph-name="nine" unicode="9" 
d="M70 70v51h51v-51h-51zM134 70v51h51v-51h-51zM198 70v51h51v-51h-51zM6 134v51h51v-51h-51zM262 134v51h51v-51h-51zM262 198v51h51v-51h-51zM70 262v51h51v-51h-51zM134 262v51h51v-51h-51zM198 262v51h51v-51h-51zM262 262v51h51v-51h-51zM6 326v51h51v-51h-51z
M262 326v51h51v-51h-51zM6 390v51h51v-51h-51zM262 390v51h51v-51h-51zM70 454v51h51v-51h-51zM134 454v51h51v-51h-51zM198 454v51h51v-51h-51z" />
    <glyph glyph-name="A" unicode="A" 
d="M6 70v51h51v-51h-51zM262 70v51h51v-51h-51zM6 134v51h51v-51h-51zM262 134v51h51v-51h-51zM6 198v51h51v-51h-51zM70 198v51h51v-51h-51zM134 198v51h51v-51h-51zM198 198v51h51v-51h-51zM262 198v51h51v-51h-51zM6 262v51h51v-51h-51zM262 262v51h51v-51h-51zM6 326v51
h51v-51h-51zM262 326v51h51v-51h-51zM70 390v51h51v-51h-51zM198 390v51h51v-51h-51zM134 454v51h51v-51h-51z" />
    <glyph glyph-name="B" unicode="B" 
d="M6 70v51h51v-51h-51zM70 70v51h51v-51h-51zM134 70v51h51v-51h-51zM198 70v51h51v-51h-51zM6 134v51h51v-51h-51zM262 134v51h51v-51h-51zM6 198v51h51v-51h-51zM262 198v51h51v-51h-51zM6 262v51h51v-51h-51zM70 262v51h51v-51h-51zM134 262v51h51v-51h-51zM198 262v51
h51v-51h-51zM6 326v51h51v-51h-51zM262 326v51h51v-51h-51zM6 390v51h51v-51h-51zM262 390v51h51v-51h-51zM6 454v51h51v-51h-51zM70 454v51h51v-51h-51zM134 454v51h51v-51h-51zM198 454v51h51v-51h-51z" />
    <glyph glyph-name="C" unicode="C" 
d="M70 70v51h51v-51h-51zM134 70v51h51v-51h-51zM198 70v51h51v-51h-51zM6 134v51h51v-51h-51zM262 134v51h51v-51h-51zM6 198v51h51v-51h-51zM6 262v51h51v-51h-51zM6 326v51h51v-51h-51zM6 390v51h51v-51h-51zM262 390v51h51v-51h-51zM70 454v51h51v-51h-51zM134 454v51
h51v-51h-51zM198 454v51h51v-51h-51z" />
    <glyph glyph-name="D" unicode="D" 
d="M6 70v51h51v-51h-51zM70 70v51h51v-51h-51zM134 70v51h51v-51h-51zM198 70v51h51v-51h-51zM6 134v51h51v-51h-51zM262 134v51h51v-51h-51zM6 198v51h51v-51h-51zM262 198v51h51v-51h-51zM6 262v51h51v-51h-51zM262 262v51h51v-51h-51zM6 326v51h51v-51h-51zM262 326v51
h51v-51h-51zM6 390v51h51v-51h-51zM262 390v51h51v-51h-51zM6 454v51h51v-51h-51zM70 454v51h51v-51h-51zM134 454v51h51v-51h-51zM198 454v51h51v-51h-51z" />
    <glyph glyph-name="E" unicode="E" 
d="M6 70v51h51v-51h-51zM70 70v51h51v-51h-51zM134 70v51h51v-51h-51zM198 70v51h51v-51h-51zM262 70v51h51v-51h-51zM6 134v51h51v-51h-51zM6 198v51h51v-51h-51zM6 262v51h51v-51h-51zM70 262v51h51v-51h-51zM134 262v51h51v-51h-51zM198 262v51h51v-51h-51zM6 326v51h51
v-51h-51zM6 390v51h51v-51h-51zM6 454v51h51v-51h-51zM70 454v51h51v-51h-51zM134 454v51h51v-51h-51zM198 454v51h51v-51h-51zM262 454v51h51v-51h-51z" />
    <glyph glyph-name="F" unicode="F" 
d="M6 70v51h51v-51h-51zM6 134v51h51v-51h-51zM6 198v51h51v-51h-51zM6 262v51h51v-51h-51zM70 262v51h51v-51h-51zM134 262v51h51v-51h-51zM198 262v51h51v-51h-51zM6 326v51h51v-51h-51zM6 390v51h51v-51h-51zM6 454v51h51v-51h-51zM70 454v51h51v-51h-51zM134 454v51h51
v-51h-51zM198 454v51h51v-51h-51zM262 454v51h51v-51h-51z" />
    <glyph glyph-name="G" unicode="G" 
d="M70 70v51h51v-51h-51zM134 70v51h51v-51h-51zM262 70v51h51v-51h-51zM6 134v51h51v-51h-51zM198 134v51h51v-51h-51zM262 134v51h51v-51h-51zM6 198v51h51v-51h-51zM262 198v51h51v-51h-51zM6 262v51h51v-51h-51zM134 262v51h51v-51h-51zM198 262v51h51v-51h-51zM262 262
v51h51v-51h-51zM6 326v51h51v-51h-51zM6 390v51h51v-51h-51zM262 390v51h51v-51h-51zM70 454v51h51v-51h-51zM134 454v51h51v-51h-51zM198 454v51h51v-51h-51z" />
    <glyph glyph-name="H" unicode="H" 
d="M6 70v51h51v-51h-51zM262 70v51h51v-51h-51zM6 134v51h51v-51h-51zM262 134v51h51v-51h-51zM6 198v51h51v-51h-51zM262 198v51h51v-51h-51zM6 262v51h51v-51h-51zM70 262v51h51v-51h-51zM134 262v51h51v-51h-51zM198 262v51h51v-51h-51zM262 262v51h51v-51h-51zM6 326v51
h51v-51h-51zM262 326v51h51v-51h-51zM6 390v51h51v-51h-51zM262 390v51h51v-51h-51zM6 454v51h51v-51h-51zM262 454v51h51v-51h-51z" />
    <glyph glyph-name="I" unicode="I" horiz-adv-x="255" 
d="M6 70v51h51v-51h-51zM70 70v51h51v-51h-51zM134 70v51h51v-51h-51zM70 134v51h51v-51h-51zM70 198v51h51v-51h-51zM70 262v51h51v-51h-51zM70 326v51h51v-51h-51zM70 390v51h51v-51h-51zM6 454v51h51v-51h-51zM70 454v51h51v-51h-51zM134 454v51h51v-51h-51z" />
    <glyph glyph-name="J" unicode="J" 
d="M70 70v51h51v-51h-51zM134 70v51h51v-51h-51zM198 70v51h51v-51h-51zM6 134v51h51v-51h-51zM262 134v51h51v-51h-51zM262 198v51h51v-51h-51zM262 262v51h51v-51h-51zM262 326v51h51v-51h-51zM262 390v51h51v-51h-51zM262 454v51h51v-51h-51z" />
    <glyph glyph-name="K" unicode="K" 
d="M6 70v51h51v-51h-51zM262 70v51h51v-51h-51zM6 134v51h51v-51h-51zM262 134v51h51v-51h-51zM6 198v51h51v-51h-51zM198 198v51h51v-51h-51zM6 262v51h51v-51h-51zM70 262v51h51v-51h-51zM134 262v51h51v-51h-51zM6 326v51h51v-51h-51zM198 326v51h51v-51h-51zM6 390v51
h51v-51h-51zM262 390v51h51v-51h-51zM6 454v51h51v-51h-51zM262 454v51h51v-51h-51z" />
    <glyph glyph-name="L" unicode="L" 
d="M6 70v51h51v-51h-51zM70 70v51h51v-51h-51zM134 70v51h51v-51h-51zM198 70v51h51v-51h-51zM262 70v51h51v-51h-51zM6 134v51h51v-51h-51zM6 198v51h51v-51h-51zM6 262v51h51v-51h-51zM6 326v51h51v-51h-51zM6 390v51h51v-51h-51zM6 454v51h51v-51h-51z" />
    <glyph glyph-name="M" unicode="M" 
d="M6 70v51h51v-51h-51zM262 70v51h51v-51h-51zM6 134v51h51v-51h-51zM262 134v51h51v-51h-51zM6 198v51h51v-51h-51zM262 198v51h51v-51h-51zM6 262v51h51v-51h-51zM134 262v51h51v-51h-51zM262 262v51h51v-51h-51zM6 326v51h51v-51h-51zM134 326v51h51v-51h-51zM262 326
v51h51v-51h-51zM6 390v51h51v-51h-51zM70 390v51h51v-51h-51zM198 390v51h51v-51h-51zM262 390v51h51v-51h-51zM6 454v51h51v-51h-51zM262 454v51h51v-51h-51z" />
    <glyph glyph-name="N" unicode="N" 
d="M6 70v51h51v-51h-51zM262 70v51h51v-51h-51zM6 134v51h51v-51h-51zM262 134v51h51v-51h-51zM6 198v51h51v-51h-51zM262 198v51h51v-51h-51zM6 262v51h51v-51h-51zM198 262v51h51v-51h-51zM262 262v51h51v-51h-51zM6 326v51h51v-51h-51zM134 326v51h51v-51h-51zM262 326
v51h51v-51h-51zM6 390v51h51v-51h-51zM70 390v51h51v-51h-51zM262 390v51h51v-51h-51zM6 454v51h51v-51h-51zM262 454v51h51v-51h-51z" />
    <glyph glyph-name="O" unicode="O" 
d="M70 70v51h51v-51h-51zM134 70v51h51v-51h-51zM198 70v51h51v-51h-51zM6 134v51h51v-51h-51zM262 134v51h51v-51h-51zM6 198v51h51v-51h-51zM262 198v51h51v-51h-51zM6 262v51h51v-51h-51zM262 262v51h51v-51h-51zM6 326v51h51v-51h-51zM262 326v51h51v-51h-51zM6 390v51
h51v-51h-51zM262 390v51h51v-51h-51zM70 454v51h51v-51h-51zM134 454v51h51v-51h-51zM198 454v51h51v-51h-51z" />
    <glyph glyph-name="P" unicode="P" 
d="M6 70v51h51v-51h-51zM6 134v51h51v-51h-51zM6 198v51h51v-51h-51zM6 262v51h51v-51h-51zM70 262v51h51v-51h-51zM134 262v51h51v-51h-51zM198 262v51h51v-51h-51zM6 326v51h51v-51h-51zM262 326v51h51v-51h-51zM6 390v51h51v-51h-51zM262 390v51h51v-51h-51zM6 454v51h51
v-51h-51zM70 454v51h51v-51h-51zM134 454v51h51v-51h-51zM198 454v51h51v-51h-51z" />
    <glyph glyph-name="Q" unicode="Q" 
d="M262 6v51h51v-51h-51zM70 70v51h51v-51h-51zM134 70v51h51v-51h-51zM198 70v51h51v-51h-51zM6 134v51h51v-51h-51zM262 134v51h51v-51h-51zM6 198v51h51v-51h-51zM262 198v51h51v-51h-51zM6 262v51h51v-51h-51zM262 262v51h51v-51h-51zM6 326v51h51v-51h-51zM262 326v51
h51v-51h-51zM6 390v51h51v-51h-51zM262 390v51h51v-51h-51zM70 454v51h51v-51h-51zM134 454v51h51v-51h-51zM198 454v51h51v-51h-51z" />
    <glyph glyph-name="R" unicode="R" 
d="M6 70v51h51v-51h-51zM262 70v51h51v-51h-51zM6 134v51h51v-51h-51zM262 134v51h51v-51h-51zM6 198v51h51v-51h-51zM262 198v51h51v-51h-51zM6 262v51h51v-51h-51zM70 262v51h51v-51h-51zM134 262v51h51v-51h-51zM198 262v51h51v-51h-51zM6 326v51h51v-51h-51zM262 326v51
h51v-51h-51zM6 390v51h51v-51h-51zM262 390v51h51v-51h-51zM6 454v51h51v-51h-51zM70 454v51h51v-51h-51zM134 454v51h51v-51h-51zM198 454v51h51v-51h-51z" />
    <glyph glyph-name="S" unicode="S" 
d="M70 70v51h51v-51h-51zM134 70v51h51v-51h-51zM198 70v51h51v-51h-51zM6 134v51h51v-51h-51zM262 134v51h51v-51h-51zM262 198v51h51v-51h-51zM70 262v51h51v-51h-51zM134 262v51h51v-51h-51zM198 262v51h51v-51h-51zM6 326v51h51v-51h-51zM6 390v51h51v-51h-51zM262 390
v51h51v-51h-51zM70 454v51h51v-51h-51zM134 454v51h51v-51h-51zM198 454v51h51v-51h-51z" />
    <glyph glyph-name="T" unicode="T" 
d="M134 70v51h51v-51h-51zM134 134v51h51v-51h-51zM134 198v51h51v-51h-51zM134 262v51h51v-51h-51zM134 326v51h51v-51h-51zM134 390v51h51v-51h-51zM6 454v51h51v-51h-51zM70 454v51h51v-51h-51zM134 454v51h51v-51h-51zM198 454v51h51v-51h-51zM262 454v51h51v-51h-51z
" />
    <glyph glyph-name="U" unicode="U" 
d="M70 70v51h51v-51h-51zM134 70v51h51v-51h-51zM198 70v51h51v-51h-51zM6 134v51h51v-51h-51zM262 134v51h51v-51h-51zM6 198v51h51v-51h-51zM262 198v51h51v-51h-51zM6 262v51h51v-51h-51zM262 262v51h51v-51h-51zM6 326v51h51v-51h-51zM262 326v51h51v-51h-51zM6 390v51
h51v-51h-51zM262 390v51h51v-51h-51zM6 454v51h51v-51h-51zM262 454v51h51v-51h-51z" />
    <glyph glyph-name="V" unicode="V" 
d="M134 70v51h51v-51h-51zM70 134v51h51v-51h-51zM198 134v51h51v-51h-51zM6 198v51h51v-51h-51zM262 198v51h51v-51h-51zM6 262v51h51v-51h-51zM262 262v51h51v-51h-51zM6 326v51h51v-51h-51zM262 326v51h51v-51h-51zM6 390v51h51v-51h-51zM262 390v51h51v-51h-51zM6 454
v51h51v-51h-51zM262 454v51h51v-51h-51z" />
    <glyph glyph-name="W" unicode="W" horiz-adv-x="511" 
d="M70 70v51h51v-51h-51zM134 70v51h51v-51h-51zM262 70v51h51v-51h-51zM326 70v51h51v-51h-51zM6 134v51h51v-51h-51zM198 134v51h51v-51h-51zM390 134v51h51v-51h-51zM6 198v51h51v-51h-51zM198 198v51h51v-51h-51zM390 198v51h51v-51h-51zM6 262v51h51v-51h-51zM198 262
v51h51v-51h-51zM390 262v51h51v-51h-51zM6 326v51h51v-51h-51zM198 326v51h51v-51h-51zM390 326v51h51v-51h-51zM6 390v51h51v-51h-51zM198 390v51h51v-51h-51zM390 390v51h51v-51h-51zM6 454v51h51v-51h-51zM198 454v51h51v-51h-51zM390 454v51h51v-51h-51z" />
    <glyph glyph-name="X" unicode="X" 
d="M6 70v51h51v-51h-51zM262 70v51h51v-51h-51zM6 134v51h51v-51h-51zM262 134v51h51v-51h-51zM70 198v51h51v-51h-51zM198 198v51h51v-51h-51zM134 262v51h51v-51h-51zM70 326v51h51v-51h-51zM198 326v51h51v-51h-51zM6 390v51h51v-51h-51zM262 390v51h51v-51h-51zM6 454
v51h51v-51h-51zM262 454v51h51v-51h-51z" />
    <glyph glyph-name="Y" unicode="Y" 
d="M134 70v51h51v-51h-51zM134 134v51h51v-51h-51zM134 198v51h51v-51h-51zM70 262v51h51v-51h-51zM198 262v51h51v-51h-51zM6 326v51h51v-51h-51zM262 326v51h51v-51h-51zM6 390v51h51v-51h-51zM262 390v51h51v-51h-51zM6 454v51h51v-51h-51zM262 454v51h51v-51h-51z" />
    <glyph glyph-name="Z" unicode="Z" 
d="M6 70v51h51v-51h-51zM70 70v51h51v-51h-51zM134 70v51h51v-51h-51zM198 70v51h51v-51h-51zM262 70v51h51v-51h-51zM6 134v51h51v-51h-51zM70 198v51h51v-51h-51zM134 262v51h51v-51h-51zM198 326v51h51v-51h-51zM262 390v51h51v-51h-51zM6 454v51h51v-51h-51zM70 454v51
h51v-51h-51zM134 454v51h51v-51h-51zM198 454v51h51v-51h-51zM262 454v51h51v-51h-51z" />
    <glyph glyph-name="a" unicode="a" 
d="M70 70v51h51v-51h-51zM134 70v51h51v-51h-51zM198 70v51h51v-51h-51zM262 70v51h51v-51h-51zM6 134v51h51v-51h-51zM262 134v51h51v-51h-51zM70 198v51h51v-51h-51zM134 198v51h51v-51h-51zM198 198v51h51v-51h-51zM262 198v51h51v-51h-51zM262 262v51h51v-51h-51z
M70 326v51h51v-51h-51zM134 326v51h51v-51h-51zM198 326v51h51v-51h-51z" />
    <glyph glyph-name="b" unicode="b" 
d="M6 70v51h51v-51h-51zM70 70v51h51v-51h-51zM134 70v51h51v-51h-51zM198 70v51h51v-51h-51zM6 134v51h51v-51h-51zM262 134v51h51v-51h-51zM6 198v51h51v-51h-51zM262 198v51h51v-51h-51zM6 262v51h51v-51h-51zM70 262v51h51v-51h-51zM262 262v51h51v-51h-51zM6 326v51h51
v-51h-51zM134 326v51h51v-51h-51zM198 326v51h51v-51h-51zM6 390v51h51v-51h-51zM6 454v51h51v-51h-51z" />
    <glyph glyph-name="c" unicode="c" horiz-adv-x="319" 
d="M70 70v51h51v-51h-51zM134 70v51h51v-51h-51zM198 70v51h51v-51h-51zM6 134v51h51v-51h-51zM6 198v51h51v-51h-51zM6 262v51h51v-51h-51zM70 326v51h51v-51h-51zM134 326v51h51v-51h-51zM198 326v51h51v-51h-51z" />
    <glyph glyph-name="d" unicode="d" 
d="M70 70v51h51v-51h-51zM134 70v51h51v-51h-51zM262 70v51h51v-51h-51zM6 134v51h51v-51h-51zM198 134v51h51v-51h-51zM262 134v51h51v-51h-51zM6 198v51h51v-51h-51zM262 198v51h51v-51h-51zM6 262v51h51v-51h-51zM262 262v51h51v-51h-51zM70 326v51h51v-51h-51zM134 326
v51h51v-51h-51zM198 326v51h51v-51h-51zM262 326v51h51v-51h-51zM262 390v51h51v-51h-51zM262 454v51h51v-51h-51z" />
    <glyph glyph-name="e" unicode="e" 
d="M70 70v51h51v-51h-51zM134 70v51h51v-51h-51zM198 70v51h51v-51h-51zM262 70v51h51v-51h-51zM6 134v51h51v-51h-51zM6 198v51h51v-51h-51zM70 198v51h51v-51h-51zM134 198v51h51v-51h-51zM198 198v51h51v-51h-51zM6 262v51h51v-51h-51zM262 262v51h51v-51h-51zM70 326v51
h51v-51h-51zM134 326v51h51v-51h-51zM198 326v51h51v-51h-51z" />
    <glyph glyph-name="f" unicode="f" horiz-adv-x="255" 
d="M70 70v51h51v-51h-51zM70 134v51h51v-51h-51zM70 198v51h51v-51h-51zM70 262v51h51v-51h-51zM6 326v51h51v-51h-51zM70 326v51h51v-51h-51zM134 326v51h51v-51h-51zM70 390v51h51v-51h-51zM134 454v51h51v-51h-51z" />
    <glyph glyph-name="g" unicode="g" 
d="M70 -57v51h51v-51h-51zM134 -57v51h51v-51h-51zM198 -57v51h51v-51h-51zM262 6v51h51v-51h-51zM70 70v51h51v-51h-51zM134 70v51h51v-51h-51zM262 70v51h51v-51h-51zM6 134v51h51v-51h-51zM198 134v51h51v-51h-51zM262 134v51h51v-51h-51zM6 198v51h51v-51h-51zM262 198
v51h51v-51h-51zM6 262v51h51v-51h-51zM262 262v51h51v-51h-51zM70 326v51h51v-51h-51zM134 326v51h51v-51h-51zM198 326v51h51v-51h-51zM262 326v51h51v-51h-51z" />
    <glyph glyph-name="h" unicode="h" 
d="M6 70v51h51v-51h-51zM262 70v51h51v-51h-51zM6 134v51h51v-51h-51zM262 134v51h51v-51h-51zM6 198v51h51v-51h-51zM262 198v51h51v-51h-51zM6 262v51h51v-51h-51zM70 262v51h51v-51h-51zM262 262v51h51v-51h-51zM6 326v51h51v-51h-51zM134 326v51h51v-51h-51zM198 326v51
h51v-51h-51zM6 390v51h51v-51h-51zM6 454v51h51v-51h-51z" />
    <glyph glyph-name="i" unicode="i" horiz-adv-x="128" 
d="M6 70v51h51v-51h-51zM6 134v51h51v-51h-51zM6 198v51h51v-51h-51zM6 262v51h51v-51h-51zM6 326v51h51v-51h-51zM6 454v51h51v-51h-51z" />
    <glyph glyph-name="j" unicode="j" horiz-adv-x="128" 
d="M-57 -57v51h51v-51h-51zM6 6v51h51v-51h-51zM6 70v51h51v-51h-51zM6 134v51h51v-51h-51zM6 198v51h51v-51h-51zM6 262v51h51v-51h-51zM6 326v51h51v-51h-51zM6 454v51h51v-51h-51z" />
    <glyph glyph-name="k" unicode="k" horiz-adv-x="319" 
d="M6 70v51h51v-51h-51zM198 70v51h51v-51h-51zM6 134v51h51v-51h-51zM134 134v51h51v-51h-51zM6 198v51h51v-51h-51zM70 198v51h51v-51h-51zM6 262v51h51v-51h-51zM134 262v51h51v-51h-51zM6 326v51h51v-51h-51zM198 326v51h51v-51h-51zM6 390v51h51v-51h-51zM6 454v51h51
v-51h-51z" />
    <glyph glyph-name="l" unicode="l" horiz-adv-x="128" 
d="M6 70v51h51v-51h-51zM6 134v51h51v-51h-51zM6 198v51h51v-51h-51zM6 262v51h51v-51h-51zM6 326v51h51v-51h-51zM6 390v51h51v-51h-51zM6 454v51h51v-51h-51z" />
    <glyph glyph-name="m" unicode="m" horiz-adv-x="511" 
d="M6 70v51h51v-51h-51zM198 70v51h51v-51h-51zM390 70v51h51v-51h-51zM6 134v51h51v-51h-51zM198 134v51h51v-51h-51zM390 134v51h51v-51h-51zM6 198v51h51v-51h-51zM198 198v51h51v-51h-51zM390 198v51h51v-51h-51zM6 262v51h51v-51h-51zM198 262v51h51v-51h-51zM390 262
v51h51v-51h-51zM6 326v51h51v-51h-51zM70 326v51h51v-51h-51zM134 326v51h51v-51h-51zM262 326v51h51v-51h-51zM326 326v51h51v-51h-51z" />
    <glyph glyph-name="n" unicode="n" 
d="M6 70v51h51v-51h-51zM262 70v51h51v-51h-51zM6 134v51h51v-51h-51zM262 134v51h51v-51h-51zM6 198v51h51v-51h-51zM262 198v51h51v-51h-51zM6 262v51h51v-51h-51zM262 262v51h51v-51h-51zM6 326v51h51v-51h-51zM70 326v51h51v-51h-51zM134 326v51h51v-51h-51zM198 326v51
h51v-51h-51z" />
    <glyph glyph-name="o" unicode="o" 
d="M70 70v51h51v-51h-51zM134 70v51h51v-51h-51zM198 70v51h51v-51h-51zM6 134v51h51v-51h-51zM262 134v51h51v-51h-51zM6 198v51h51v-51h-51zM262 198v51h51v-51h-51zM6 262v51h51v-51h-51zM262 262v51h51v-51h-51zM70 326v51h51v-51h-51zM134 326v51h51v-51h-51zM198 326
v51h51v-51h-51z" />
    <glyph glyph-name="p" unicode="p" 
d="M6 -57v51h51v-51h-51zM6 6v51h51v-51h-51zM6 70v51h51v-51h-51zM134 70v51h51v-51h-51zM198 70v51h51v-51h-51zM6 134v51h51v-51h-51zM70 134v51h51v-51h-51zM262 134v51h51v-51h-51zM6 198v51h51v-51h-51zM262 198v51h51v-51h-51zM6 262v51h51v-51h-51zM262 262v51h51
v-51h-51zM6 326v51h51v-51h-51zM70 326v51h51v-51h-51zM134 326v51h51v-51h-51zM198 326v51h51v-51h-51z" />
    <glyph glyph-name="q" unicode="q" 
d="M262 -57v51h51v-51h-51zM262 6v51h51v-51h-51zM70 70v51h51v-51h-51zM134 70v51h51v-51h-51zM262 70v51h51v-51h-51zM6 134v51h51v-51h-51zM198 134v51h51v-51h-51zM262 134v51h51v-51h-51zM6 198v51h51v-51h-51zM262 198v51h51v-51h-51zM6 262v51h51v-51h-51zM262 262
v51h51v-51h-51zM70 326v51h51v-51h-51zM134 326v51h51v-51h-51zM198 326v51h51v-51h-51z" />
    <glyph glyph-name="r" unicode="r" horiz-adv-x="319" 
d="M6 70v51h51v-51h-51zM6 134v51h51v-51h-51zM6 198v51h51v-51h-51zM6 262v51h51v-51h-51zM70 262v51h51v-51h-51zM6 326v51h51v-51h-51zM134 326v51h51v-51h-51zM198 326v51h51v-51h-51z" />
    <glyph glyph-name="s" unicode="s" 
d="M6 70v51h51v-51h-51zM70 70v51h51v-51h-51zM134 70v51h51v-51h-51zM198 70v51h51v-51h-51zM262 134v51h51v-51h-51zM70 198v51h51v-51h-51zM134 198v51h51v-51h-51zM198 198v51h51v-51h-51zM6 262v51h51v-51h-51zM70 326v51h51v-51h-51zM134 326v51h51v-51h-51zM198 326
v51h51v-51h-51zM262 326v51h51v-51h-51z" />
    <glyph glyph-name="t" unicode="t" horiz-adv-x="319" 
d="M134 70v51h51v-51h-51zM198 70v51h51v-51h-51zM70 134v51h51v-51h-51zM70 198v51h51v-51h-51zM70 262v51h51v-51h-51zM6 326v51h51v-51h-51zM70 326v51h51v-51h-51zM134 326v51h51v-51h-51zM198 326v51h51v-51h-51zM70 390v51h51v-51h-51z" />
    <glyph glyph-name="u" unicode="u" 
d="M70 70v51h51v-51h-51zM134 70v51h51v-51h-51zM198 70v51h51v-51h-51zM262 70v51h51v-51h-51zM6 134v51h51v-51h-51zM262 134v51h51v-51h-51zM6 198v51h51v-51h-51zM262 198v51h51v-51h-51zM6 262v51h51v-51h-51zM262 262v51h51v-51h-51zM6 326v51h51v-51h-51zM262 326v51
h51v-51h-51z" />
    <glyph glyph-name="v" unicode="v" 
d="M134 70v51h51v-51h-51zM70 134v51h51v-51h-51zM198 134v51h51v-51h-51zM6 198v51h51v-51h-51zM262 198v51h51v-51h-51zM6 262v51h51v-51h-51zM262 262v51h51v-51h-51zM6 326v51h51v-51h-51zM262 326v51h51v-51h-51z" />
    <glyph glyph-name="w" unicode="w" horiz-adv-x="511" 
d="M70 70v51h51v-51h-51zM134 70v51h51v-51h-51zM262 70v51h51v-51h-51zM326 70v51h51v-51h-51zM6 134v51h51v-51h-51zM198 134v51h51v-51h-51zM390 134v51h51v-51h-51zM6 198v51h51v-51h-51zM198 198v51h51v-51h-51zM390 198v51h51v-51h-51zM6 262v51h51v-51h-51zM198 262
v51h51v-51h-51zM390 262v51h51v-51h-51zM6 326v51h51v-51h-51zM390 326v51h51v-51h-51z" />
    <glyph glyph-name="x" unicode="x" 
d="M6 70v51h51v-51h-51zM262 70v51h51v-51h-51zM70 134v51h51v-51h-51zM198 134v51h51v-51h-51zM134 198v51h51v-51h-51zM70 262v51h51v-51h-51zM198 262v51h51v-51h-51zM6 326v51h51v-51h-51zM262 326v51h51v-51h-51z" />
    <glyph glyph-name="y" unicode="y" 
d="M70 -57v51h51v-51h-51zM134 -57v51h51v-51h-51zM198 -57v51h51v-51h-51zM262 6v51h51v-51h-51zM70 70v51h51v-51h-51zM134 70v51h51v-51h-51zM198 70v51h51v-51h-51zM262 70v51h51v-51h-51zM6 134v51h51v-51h-51zM262 134v51h51v-51h-51zM6 198v51h51v-51h-51zM262 198
v51h51v-51h-51zM6 262v51h51v-51h-51zM262 262v51h51v-51h-51zM6 326v51h51v-51h-51zM262 326v51h51v-51h-51z" />
    <glyph glyph-name="z" unicode="z" 
d="M6 70v51h51v-51h-51zM70 70v51h51v-51h-51zM134 70v51h51v-51h-51zM198 70v51h51v-51h-51zM262 70v51h51v-51h-51zM70 134v51h51v-51h-51zM134 198v51h51v-51h-51zM198 262v51h51v-51h-51zM6 326v51h51v-51h-51zM70 326v51h51v-51h-51zM134 326v51h51v-51h-51zM198 326
v51h51v-51h-51zM262 326v51h51v-51h-51z" />
  </font>
</defs>
</svg>
