<?xml version="1.0" standalone="no"?>
<!DOCTYPE svg PUBLIC "-//W3C//DTD SVG 1.1//EN" "http://www.w3.org/Graphics/SVG/1.1/DTD/svg11.dtd" >
<svg xmlns="http://www.w3.org/2000/svg" xmlns:xlink="http://www.w3.org/1999/xlink" version="1.1">
<metadata>
Created by FontForge 20161013 at Thu May 21 04:57:17 1931
 By ,,,
Generated by Scorpio *Display - Alpine TDA-7558
</metadata>
<defs>
<font id="Alpine-7558M" horiz-adv-x="950" >
  <font-face 
    font-family="Alpine 7558M"
    font-weight="400"
    font-stretch="normal"
    units-per-em="2085"
    panose-1="0 0 0 0 0 0 0 0 0 0"
    ascent="1668"
    descent="-417"
    x-height="1775"
    cap-height="1775"
    bbox="65 0 1200 2075"
    underline-thickness="0"
    underline-position="0"
    unicode-range="U+0020-2122"
  />
<missing-glyph horiz-adv-x="1042" 
d="M65 0v1935h912v-1935h-912zM912 65v1805h-782v-1805h782z" />
    <glyph glyph-name=".notdef" horiz-adv-x="1042" 
d="M65 0v1935h912v-1935h-912zM912 65v1805h-782v-1805h782z" />
    <glyph glyph-name=".null" horiz-adv-x="0" 
 />
    <glyph glyph-name="nonmarkingreturn" 
 />
    <glyph glyph-name="space" unicode=" " 
 />
    <glyph glyph-name="exclam" unicode="!" horiz-adv-x="1110" 
d="M961 1841h-117l32 234h117zM915 1520h-117l33 234h117zM874 1228h-117l33 234h117zM829 906h-117l33 234h117zM702 0h-117l32 234h117z" />
    <glyph glyph-name="quotedbl" unicode="&#x22;" 
d="M1172 1575h-100l28 200h100zM997 1575h-100l28 200h100zM1133 1300h-100l28 200h100zM647 1575h-100l28 200h100zM472 1575h-100l28 200h100zM923 1050h-100l28 200h100zM608 1300h-100l28 200h100zM398 1050h-100l28 200h100z" />
    <glyph glyph-name="numbersign" unicode="#" 
d="M958 1300h-100l28 200h100zM1098 1050h-100l28 200h100zM923 1050h-100l28 200h100zM608 1300h-100l28 200h100zM748 1050h-100l28 200h100zM884 775h-100l28 200h100zM573 1050h-100l28 200h100zM1024 525h-100l28 200h100zM398 1050h-100l28 200h100zM849 525h-100
l28 200h100zM534 775h-100l28 200h100zM810 250h-100l28 200h100zM499 525h-100l28 200h100zM324 525h-100l28 200h100zM460 250h-100l28 200h100zM674 525h-100l28 200h100z" />
    <glyph glyph-name="dollar" unicode="$" 
d="M1133 1300h-100l28 200h100zM822 1575h-100l28 200h100zM958 1300h-100l28 200h100zM783 1300h-100l28 200h100zM608 1300h-100l28 200h100zM884 775h-100l28 200h100zM1024 525h-100l28 200h100zM709 775h-100l28 200h100zM398 1050h-100l28 200h100zM534 775h-100
l28 200h100zM810 250h-100l28 200h100zM635 250h-100l28 200h100zM460 250h-100l28 200h100zM600 0h-100l28 200h100zM285 250h-100l28 200h100z" />
    <glyph glyph-name="percent" unicode="%" 
d="M1133 1300h-100l28 200h100zM647 1575h-100l28 200h100zM783 1300h-100l28 200h100zM923 1050h-100l28 200h100zM433 1300h-100l28 200h100zM573 1050h-100l28 200h100zM709 775h-100l28 200h100zM849 525h-100l28 200h100zM985 250h-100l28 200h100zM499 525h-100
l28 200h100zM635 250h-100l28 200h100zM775 0h-100l28 200h100zM285 250h-100l28 200h100zM1172 1575h-100l28 200h100zM250 0h-100l28 200h100z" />
    <glyph glyph-name="ampersand" unicode="&#x26;" 
d="M822 1575h-100l28 200h100zM958 1300h-100l28 200h100zM647 1575h-100l28 200h100zM748 1050h-100l28 200h100zM433 1300h-100l28 200h100zM1024 525h-100l28 200h100zM398 1050h-100l28 200h100zM534 775h-100l28 200h100zM674 525h-100l28 200h100zM810 250h-100
l28 200h100zM950 0h-100l28 200h100zM324 525h-100l28 200h100zM600 0h-100l28 200h100zM285 250h-100l28 200h100zM425 0h-100l28 200h100z" />
    <glyph glyph-name="quotesingle" unicode="'" 
d="M822 1575h-100l28 200h100zM647 1575h-100l28 200h100zM783 1300h-100l28 200h100zM573 1050h-100l28 200h100z" />
    <glyph glyph-name="parenleft" unicode="(" 
d="M997 1575h-100l28 200h100zM783 1300h-100l28 200h100zM748 1050h-100l28 200h100zM709 775h-100l28 200h100zM674 525h-100l28 200h100zM635 250h-100l28 200h100zM775 0h-100l28 200h100z" />
    <glyph glyph-name="parenright" unicode=")" 
d="M647 1575h-100l28 200h100zM783 1300h-100l28 200h100zM748 1050h-100l28 200h100zM709 775h-100l28 200h100zM674 525h-100l28 200h100zM635 250h-100l28 200h100zM425 0h-100l28 200h100z" />
    <glyph glyph-name="asterisk" unicode="*" 
d="M1098 1050h-100l28 200h100zM783 1300h-100l28 200h100zM748 1050h-100l28 200h100zM884 775h-100l28 200h100zM1024 525h-100l28 200h100zM709 775h-100l28 200h100zM398 1050h-100l28 200h100zM534 775h-100l28 200h100zM674 525h-100l28 200h100zM635 250h-100l28 200
h100zM324 525h-100l28 200h100z" />
    <glyph glyph-name="plus" unicode="+" 
d="M783 1300h-100l28 200h100zM1059 775h-100l28 200h100zM748 1050h-100l28 200h100zM884 775h-100l28 200h100zM709 775h-100l28 200h100zM534 775h-100l28 200h100zM674 525h-100l28 200h100zM359 775h-100l28 200h100zM635 250h-100l28 200h100z" />
    <glyph glyph-name="comma" unicode="," 
d="M674 525h-100l28 200h100zM499 525h-100l28 200h100zM635 250h-100l28 200h100zM425 0h-100l28 200h100z" />
    <glyph glyph-name="hyphen" unicode="-" 
d="M1059 775h-100l28 200h100zM884 775h-100l28 200h100zM709 775h-100l28 200h100zM534 775h-100l28 200h100zM359 775h-100l28 200h100z" />
    <glyph glyph-name="period" unicode="." 
d="M460 250h-100l28 200h100zM285 250h-100l28 200h100zM425 0h-100l28 200h100zM250 0h-100l28 200h100z" />
    <glyph glyph-name="slash" unicode="/" 
d="M1133 1300h-100l28 200h100zM923 1050h-100l28 200h100zM709 775h-100l28 200h100zM499 525h-100l28 200h100zM285 250h-100l28 200h100z" />
    <glyph glyph-name="zero" unicode="0" 
d="M997 1575h-100l28 200h100zM1133 1300h-100l28 200h100zM822 1575h-100l28 200h100zM647 1575h-100l28 200h100zM1098 1050h-100l28 200h100zM923 1050h-100l28 200h100zM1059 775h-100l28 200h100zM433 1300h-100l28 200h100zM1024 525h-100l28 200h100zM709 775h-100
l28 200h100zM398 1050h-100l28 200h100zM985 250h-100l28 200h100zM359 775h-100l28 200h100zM499 525h-100l28 200h100zM324 525h-100l28 200h100zM775 0h-100l28 200h100zM600 0h-100l28 200h100zM285 250h-100l28 200h100zM425 0h-100l28 200h100z" />
    <glyph glyph-name="one" unicode="1" 
d="M822 1575h-100l28 200h100zM783 1300h-100l28 200h100zM608 1300h-100l28 200h100zM748 1050h-100l28 200h100zM709 775h-100l28 200h100zM674 525h-100l28 200h100zM635 250h-100l28 200h100zM775 0h-100l28 200h100zM600 0h-100l28 200h100zM425 0h-100l28 200h100z
" />
    <glyph glyph-name="two" unicode="2" 
d="M997 1575h-100l28 200h100zM1133 1300h-100l28 200h100zM822 1575h-100l28 200h100zM647 1575h-100l28 200h100zM1098 1050h-100l28 200h100zM433 1300h-100l28 200h100zM884 775h-100l28 200h100zM674 525h-100l28 200h100zM950 0h-100l28 200h100zM775 0h-100l28 200
h100zM460 250h-100l28 200h100zM600 0h-100l28 200h100zM425 0h-100l28 200h100zM250 0h-100l28 200h100z" />
    <glyph glyph-name="three" unicode="3" 
d="M1172 1575h-100l28 200h100zM997 1575h-100l28 200h100zM822 1575h-100l28 200h100zM958 1300h-100l28 200h100zM647 1575h-100l28 200h100zM472 1575h-100l28 200h100zM748 1050h-100l28 200h100zM884 775h-100l28 200h100zM1024 525h-100l28 200h100zM985 250h-100
l28 200h100zM775 0h-100l28 200h100zM600 0h-100l28 200h100zM285 250h-100l28 200h100zM425 0h-100l28 200h100z" />
    <glyph glyph-name="four" unicode="4" 
d="M997 1575h-100l28 200h100zM958 1300h-100l28 200h100zM783 1300h-100l28 200h100zM923 1050h-100l28 200h100zM884 775h-100l28 200h100zM573 1050h-100l28 200h100zM1024 525h-100l28 200h100zM849 525h-100l28 200h100zM674 525h-100l28 200h100zM359 775h-100l28 200
h100zM810 250h-100l28 200h100zM499 525h-100l28 200h100zM324 525h-100l28 200h100zM775 0h-100l28 200h100z" />
    <glyph glyph-name="five" unicode="5" 
d="M1172 1575h-100l28 200h100zM997 1575h-100l28 200h100zM822 1575h-100l28 200h100zM647 1575h-100l28 200h100zM472 1575h-100l28 200h100zM923 1050h-100l28 200h100zM1059 775h-100l28 200h100zM748 1050h-100l28 200h100zM433 1300h-100l28 200h100zM573 1050h-100
l28 200h100zM1024 525h-100l28 200h100zM398 1050h-100l28 200h100zM985 250h-100l28 200h100zM775 0h-100l28 200h100zM600 0h-100l28 200h100zM285 250h-100l28 200h100zM425 0h-100l28 200h100z" />
    <glyph glyph-name="six" unicode="6" 
d="M997 1575h-100l28 200h100zM822 1575h-100l28 200h100zM608 1300h-100l28 200h100zM884 775h-100l28 200h100zM1024 525h-100l28 200h100zM709 775h-100l28 200h100zM398 1050h-100l28 200h100zM534 775h-100l28 200h100zM985 250h-100l28 200h100zM359 775h-100l28 200
h100zM324 525h-100l28 200h100zM775 0h-100l28 200h100zM600 0h-100l28 200h100zM285 250h-100l28 200h100zM425 0h-100l28 200h100z" />
    <glyph glyph-name="seven" unicode="7" 
d="M1172 1575h-100l28 200h100zM997 1575h-100l28 200h100zM1133 1300h-100l28 200h100zM822 1575h-100l28 200h100zM647 1575h-100l28 200h100zM472 1575h-100l28 200h100zM923 1050h-100l28 200h100zM709 775h-100l28 200h100zM499 525h-100l28 200h100zM460 250h-100
l28 200h100zM425 0h-100l28 200h100z" />
    <glyph glyph-name="eight" unicode="8" 
d="M997 1575h-100l28 200h100zM1133 1300h-100l28 200h100zM822 1575h-100l28 200h100zM647 1575h-100l28 200h100zM1098 1050h-100l28 200h100zM433 1300h-100l28 200h100zM884 775h-100l28 200h100zM1024 525h-100l28 200h100zM709 775h-100l28 200h100zM398 1050h-100
l28 200h100zM534 775h-100l28 200h100zM985 250h-100l28 200h100zM324 525h-100l28 200h100zM775 0h-100l28 200h100zM600 0h-100l28 200h100zM285 250h-100l28 200h100zM425 0h-100l28 200h100z" />
    <glyph glyph-name="nine" unicode="9" 
d="M997 1575h-100l28 200h100zM1133 1300h-100l28 200h100zM822 1575h-100l28 200h100zM647 1575h-100l28 200h100zM1098 1050h-100l28 200h100zM1059 775h-100l28 200h100zM433 1300h-100l28 200h100zM884 775h-100l28 200h100zM1024 525h-100l28 200h100zM709 775h-100
l28 200h100zM398 1050h-100l28 200h100zM534 775h-100l28 200h100zM810 250h-100l28 200h100zM600 0h-100l28 200h100zM425 0h-100l28 200h100z" />
    <glyph glyph-name="colon" unicode=":" 
d="M608 1300h-100l28 200h100zM433 1300h-100l28 200h100zM573 1050h-100l28 200h100zM398 1050h-100l28 200h100zM499 525h-100l28 200h100zM324 525h-100l28 200h100zM460 250h-100l28 200h100zM285 250h-100l28 200h100z" />
    <glyph glyph-name="semicolon" unicode=";" 
d="M608 1300h-100l28 200h100zM433 1300h-100l28 200h100zM573 1050h-100l28 200h100zM398 1050h-100l28 200h100zM499 525h-100l28 200h100zM324 525h-100l28 200h100zM460 250h-100l28 200h100zM250 0h-100l28 200h100z" />
    <glyph glyph-name="less" unicode="&#x3c;" 
d="M958 1300h-100l28 200h100zM748 1050h-100l28 200h100zM534 775h-100l28 200h100zM674 525h-100l28 200h100zM810 250h-100l28 200h100z" />
    <glyph glyph-name="equal" unicode="=" 
d="M1098 1050h-100l28 200h100zM923 1050h-100l28 200h100zM748 1050h-100l28 200h100zM573 1050h-100l28 200h100zM1024 525h-100l28 200h100zM398 1050h-100l28 200h100zM849 525h-100l28 200h100zM674 525h-100l28 200h100zM499 525h-100l28 200h100zM324 525h-100
l28 200h100z" />
    <glyph glyph-name="greater" unicode="&#x3e;" 
d="M608 1300h-100l28 200h100zM748 1050h-100l28 200h100zM884 775h-100l28 200h100zM674 525h-100l28 200h100zM460 250h-100l28 200h100z" />
    <glyph glyph-name="question" unicode="?" 
d="M997 1575h-100l28 200h100zM1133 1300h-100l28 200h100zM822 1575h-100l28 200h100zM647 1575h-100l28 200h100zM1098 1050h-100l28 200h100zM433 1300h-100l28 200h100zM884 775h-100l28 200h100zM674 525h-100l28 200h100zM600 0h-100l28 200h100z" />
    <glyph glyph-name="at" unicode="@" 
d="M674 525h-100l28 200h100zM635 250h-100l28 200h100zM600 0h-100l28 200h100zM997 1575h-100l28 200h100zM1133 1300h-100l28 200h100zM822 1575h-100l28 200h100zM647 1575h-100l28 200h100zM1098 1050h-100l28 200h100zM923 1050h-100l28 200h100zM748 1050h-100
l28 200h100zM433 1300h-100l28 200h100zM573 1050h-100l28 200h100zM398 1050h-100l28 200h100zM1059 775h-100l28 200h100zM359 775h-100l28 200h100zM810 250h-100l28 200h100zM460 250h-100l28 200h100zM985 250h-100l28 200h100zM285 250h-100l28 200h100z" />
    <glyph glyph-name="A" unicode="A" 
d="M997 1575h-100l28 200h100zM1133 1300h-100l28 200h100zM822 1575h-100l28 200h100zM647 1575h-100l28 200h100zM1098 1050h-100l28 200h100zM1059 775h-100l28 200h100zM433 1300h-100l28 200h100zM1024 525h-100l28 200h100zM398 1050h-100l28 200h100zM849 525h-100
l28 200h100zM985 250h-100l28 200h100zM674 525h-100l28 200h100zM359 775h-100l28 200h100zM499 525h-100l28 200h100zM950 0h-100l28 200h100zM324 525h-100l28 200h100zM285 250h-100l28 200h100zM250 0h-100l28 200h100z" />
    <glyph glyph-name="B" unicode="B" 
d="M997 1575h-100l28 200h100zM1133 1300h-100l28 200h100zM822 1575h-100l28 200h100zM647 1575h-100l28 200h100zM1098 1050h-100l28 200h100zM472 1575h-100l28 200h100zM433 1300h-100l28 200h100zM884 775h-100l28 200h100zM1024 525h-100l28 200h100zM709 775h-100
l28 200h100zM398 1050h-100l28 200h100zM534 775h-100l28 200h100zM985 250h-100l28 200h100zM359 775h-100l28 200h100zM324 525h-100l28 200h100zM775 0h-100l28 200h100zM600 0h-100l28 200h100zM285 250h-100l28 200h100zM425 0h-100l28 200h100zM250 0h-100l28 200h100
z" />
    <glyph glyph-name="C" unicode="C" 
d="M997 1575h-100l28 200h100zM1133 1300h-100l28 200h100zM822 1575h-100l28 200h100zM647 1575h-100l28 200h100zM433 1300h-100l28 200h100zM398 1050h-100l28 200h100zM985 250h-100l28 200h100zM359 775h-100l28 200h100zM324 525h-100l28 200h100zM775 0h-100l28 200
h100zM600 0h-100l28 200h100zM285 250h-100l28 200h100zM425 0h-100l28 200h100z" />
    <glyph glyph-name="D" unicode="D" 
d="M822 1575h-100l28 200h100zM958 1300h-100l28 200h100zM647 1575h-100l28 200h100zM1098 1050h-100l28 200h100zM472 1575h-100l28 200h100zM1059 775h-100l28 200h100zM433 1300h-100l28 200h100zM1024 525h-100l28 200h100zM398 1050h-100l28 200h100zM359 775h-100
l28 200h100zM810 250h-100l28 200h100zM324 525h-100l28 200h100zM600 0h-100l28 200h100zM285 250h-100l28 200h100zM425 0h-100l28 200h100zM250 0h-100l28 200h100z" />
    <glyph glyph-name="E" unicode="E" 
d="M1172 1575h-100l28 200h100zM997 1575h-100l28 200h100zM822 1575h-100l28 200h100zM647 1575h-100l28 200h100zM472 1575h-100l28 200h100zM1059 775h-100l28 200h100zM433 1300h-100l28 200h100zM884 775h-100l28 200h100zM709 775h-100l28 200h100zM398 1050h-100
l28 200h100zM534 775h-100l28 200h100zM359 775h-100l28 200h100zM950 0h-100l28 200h100zM324 525h-100l28 200h100zM775 0h-100l28 200h100zM600 0h-100l28 200h100zM285 250h-100l28 200h100zM425 0h-100l28 200h100zM250 0h-100l28 200h100z" />
    <glyph glyph-name="F" unicode="F" 
d="M1172 1575h-100l28 200h100zM997 1575h-100l28 200h100zM822 1575h-100l28 200h100zM647 1575h-100l28 200h100zM472 1575h-100l28 200h100zM1059 775h-100l28 200h100zM433 1300h-100l28 200h100zM884 775h-100l28 200h100zM709 775h-100l28 200h100zM398 1050h-100
l28 200h100zM534 775h-100l28 200h100zM359 775h-100l28 200h100zM324 525h-100l28 200h100zM285 250h-100l28 200h100zM250 0h-100l28 200h100z" />
    <glyph glyph-name="G" unicode="G" 
d="M997 1575h-100l28 200h100zM822 1575h-100l28 200h100zM647 1575h-100l28 200h100zM1059 775h-100l28 200h100zM433 1300h-100l28 200h100zM884 775h-100l28 200h100zM1024 525h-100l28 200h100zM709 775h-100l28 200h100zM398 1050h-100l28 200h100zM985 250h-100
l28 200h100zM359 775h-100l28 200h100zM950 0h-100l28 200h100zM324 525h-100l28 200h100zM775 0h-100l28 200h100zM600 0h-100l28 200h100zM285 250h-100l28 200h100zM425 0h-100l28 200h100z" />
    <glyph glyph-name="H" unicode="H" 
d="M1172 1575h-100l28 200h100zM1133 1300h-100l28 200h100zM1098 1050h-100l28 200h100zM472 1575h-100l28 200h100zM1059 775h-100l28 200h100zM433 1300h-100l28 200h100zM884 775h-100l28 200h100zM1024 525h-100l28 200h100zM709 775h-100l28 200h100zM398 1050h-100
l28 200h100zM534 775h-100l28 200h100zM985 250h-100l28 200h100zM359 775h-100l28 200h100zM950 0h-100l28 200h100zM324 525h-100l28 200h100zM285 250h-100l28 200h100zM250 0h-100l28 200h100z" />
    <glyph glyph-name="I" unicode="I" 
d="M997 1575h-100l28 200h100zM822 1575h-100l28 200h100zM647 1575h-100l28 200h100zM783 1300h-100l28 200h100zM748 1050h-100l28 200h100zM709 775h-100l28 200h100zM674 525h-100l28 200h100zM635 250h-100l28 200h100zM775 0h-100l28 200h100zM600 0h-100l28 200h100z
M425 0h-100l28 200h100z" />
    <glyph glyph-name="J" unicode="J" 
d="M1172 1575h-100l28 200h100zM997 1575h-100l28 200h100zM822 1575h-100l28 200h100zM958 1300h-100l28 200h100zM923 1050h-100l28 200h100zM884 775h-100l28 200h100zM849 525h-100l28 200h100zM810 250h-100l28 200h100zM600 0h-100l28 200h100zM285 250h-100l28 200
h100zM425 0h-100l28 200h100z" />
    <glyph glyph-name="K" unicode="K" 
d="M1172 1575h-100l28 200h100zM958 1300h-100l28 200h100zM472 1575h-100l28 200h100zM748 1050h-100l28 200h100zM433 1300h-100l28 200h100zM398 1050h-100l28 200h100zM534 775h-100l28 200h100zM674 525h-100l28 200h100zM359 775h-100l28 200h100zM810 250h-100
l28 200h100zM950 0h-100l28 200h100zM324 525h-100l28 200h100zM285 250h-100l28 200h100zM250 0h-100l28 200h100z" />
    <glyph glyph-name="L" unicode="L" 
d="M472 1575h-100l28 200h100zM433 1300h-100l28 200h100zM398 1050h-100l28 200h100zM359 775h-100l28 200h100zM950 0h-100l28 200h100zM324 525h-100l28 200h100zM775 0h-100l28 200h100zM600 0h-100l28 200h100zM285 250h-100l28 200h100zM425 0h-100l28 200h100zM250 0
h-100l28 200h100z" />
    <glyph glyph-name="M" unicode="M" 
d="M1172 1575h-100l28 200h100zM1133 1300h-100l28 200h100zM958 1300h-100l28 200h100zM1098 1050h-100l28 200h100zM472 1575h-100l28 200h100zM608 1300h-100l28 200h100zM1059 775h-100l28 200h100zM748 1050h-100l28 200h100zM433 1300h-100l28 200h100zM1024 525h-100
l28 200h100zM709 775h-100l28 200h100zM398 1050h-100l28 200h100zM985 250h-100l28 200h100zM359 775h-100l28 200h100zM950 0h-100l28 200h100zM324 525h-100l28 200h100zM285 250h-100l28 200h100zM250 0h-100l28 200h100z" />
    <glyph glyph-name="N" unicode="N" 
d="M1172 1575h-100l28 200h100zM1133 1300h-100l28 200h100zM1098 1050h-100l28 200h100zM472 1575h-100l28 200h100zM1059 775h-100l28 200h100zM433 1300h-100l28 200h100zM573 1050h-100l28 200h100zM1024 525h-100l28 200h100zM709 775h-100l28 200h100zM398 1050h-100
l28 200h100zM849 525h-100l28 200h100zM985 250h-100l28 200h100zM359 775h-100l28 200h100zM950 0h-100l28 200h100zM324 525h-100l28 200h100zM285 250h-100l28 200h100zM250 0h-100l28 200h100z" />
    <glyph glyph-name="O" unicode="O" 
d="M997 1575h-100l28 200h100zM1133 1300h-100l28 200h100zM822 1575h-100l28 200h100zM647 1575h-100l28 200h100zM1098 1050h-100l28 200h100zM1059 775h-100l28 200h100zM433 1300h-100l28 200h100zM1024 525h-100l28 200h100zM398 1050h-100l28 200h100zM985 250h-100
l28 200h100zM359 775h-100l28 200h100zM324 525h-100l28 200h100zM775 0h-100l28 200h100zM600 0h-100l28 200h100zM285 250h-100l28 200h100zM425 0h-100l28 200h100z" />
    <glyph glyph-name="P" unicode="P" 
d="M997 1575h-100l28 200h100zM1133 1300h-100l28 200h100zM822 1575h-100l28 200h100zM647 1575h-100l28 200h100zM1098 1050h-100l28 200h100zM472 1575h-100l28 200h100zM433 1300h-100l28 200h100zM884 775h-100l28 200h100zM709 775h-100l28 200h100zM398 1050h-100
l28 200h100zM534 775h-100l28 200h100zM359 775h-100l28 200h100zM324 525h-100l28 200h100zM285 250h-100l28 200h100zM250 0h-100l28 200h100z" />
    <glyph glyph-name="Q" unicode="Q" 
d="M997 1575h-100l28 200h100zM1133 1300h-100l28 200h100zM822 1575h-100l28 200h100zM647 1575h-100l28 200h100zM1098 1050h-100l28 200h100zM1059 775h-100l28 200h100zM433 1300h-100l28 200h100zM1024 525h-100l28 200h100zM398 1050h-100l28 200h100zM674 525h-100
l28 200h100zM359 775h-100l28 200h100zM810 250h-100l28 200h100zM950 0h-100l28 200h100zM324 525h-100l28 200h100zM600 0h-100l28 200h100zM285 250h-100l28 200h100zM425 0h-100l28 200h100z" />
    <glyph glyph-name="R" unicode="R" 
d="M997 1575h-100l28 200h100zM1133 1300h-100l28 200h100zM822 1575h-100l28 200h100zM647 1575h-100l28 200h100zM1098 1050h-100l28 200h100zM472 1575h-100l28 200h100zM433 1300h-100l28 200h100zM884 775h-100l28 200h100zM709 775h-100l28 200h100zM398 1050h-100
l28 200h100zM534 775h-100l28 200h100zM674 525h-100l28 200h100zM359 775h-100l28 200h100zM810 250h-100l28 200h100zM950 0h-100l28 200h100zM324 525h-100l28 200h100zM285 250h-100l28 200h100zM250 0h-100l28 200h100z" />
    <glyph glyph-name="S" unicode="S" 
d="M1172 1575h-100l28 200h100zM997 1575h-100l28 200h100zM822 1575h-100l28 200h100zM647 1575h-100l28 200h100zM433 1300h-100l28 200h100zM884 775h-100l28 200h100zM1024 525h-100l28 200h100zM709 775h-100l28 200h100zM398 1050h-100l28 200h100zM534 775h-100
l28 200h100zM985 250h-100l28 200h100zM775 0h-100l28 200h100zM600 0h-100l28 200h100zM425 0h-100l28 200h100zM250 0h-100l28 200h100z" />
    <glyph glyph-name="T" unicode="T" 
d="M1172 1575h-100l28 200h100zM997 1575h-100l28 200h100zM822 1575h-100l28 200h100zM647 1575h-100l28 200h100zM783 1300h-100l28 200h100zM472 1575h-100l28 200h100zM748 1050h-100l28 200h100zM709 775h-100l28 200h100zM674 525h-100l28 200h100zM635 250h-100
l28 200h100zM600 0h-100l28 200h100z" />
    <glyph glyph-name="U" unicode="U" 
d="M1172 1575h-100l28 200h100zM1133 1300h-100l28 200h100zM1098 1050h-100l28 200h100zM472 1575h-100l28 200h100zM1059 775h-100l28 200h100zM433 1300h-100l28 200h100zM1024 525h-100l28 200h100zM398 1050h-100l28 200h100zM985 250h-100l28 200h100zM359 775h-100
l28 200h100zM324 525h-100l28 200h100zM775 0h-100l28 200h100zM600 0h-100l28 200h100zM285 250h-100l28 200h100zM425 0h-100l28 200h100z" />
    <glyph glyph-name="V" unicode="V" 
d="M1172 1575h-100l28 200h100zM1133 1300h-100l28 200h100zM1098 1050h-100l28 200h100zM472 1575h-100l28 200h100zM1059 775h-100l28 200h100zM433 1300h-100l28 200h100zM1024 525h-100l28 200h100zM398 1050h-100l28 200h100zM359 775h-100l28 200h100zM810 250h-100
l28 200h100zM324 525h-100l28 200h100zM460 250h-100l28 200h100zM600 0h-100l28 200h100z" />
    <glyph glyph-name="W" unicode="W" 
d="M1172 1575h-100l28 200h100zM1133 1300h-100l28 200h100zM1098 1050h-100l28 200h100zM472 1575h-100l28 200h100zM1059 775h-100l28 200h100zM433 1300h-100l28 200h100zM1024 525h-100l28 200h100zM709 775h-100l28 200h100zM398 1050h-100l28 200h100zM985 250h-100
l28 200h100zM674 525h-100l28 200h100zM359 775h-100l28 200h100zM635 250h-100l28 200h100zM324 525h-100l28 200h100zM775 0h-100l28 200h100zM285 250h-100l28 200h100zM425 0h-100l28 200h100zM460 250h-100h100z" />
    <glyph glyph-name="X" unicode="X" 
d="M1172 1575h-100l28 200h100zM1133 1300h-100l28 200h100zM472 1575h-100l28 200h100zM923 1050h-100l28 200h100zM433 1300h-100l28 200h100zM573 1050h-100l28 200h100zM709 775h-100l28 200h100zM849 525h-100l28 200h100zM985 250h-100l28 200h100zM499 525h-100
l28 200h100zM950 0h-100l28 200h100zM285 250h-100l28 200h100zM250 0h-100l28 200h100z" />
    <glyph glyph-name="Y" unicode="Y" 
d="M1172 1575h-100l28 200h100zM1133 1300h-100l28 200h100zM1098 1050h-100l28 200h100zM472 1575h-100l28 200h100zM433 1300h-100l28 200h100zM884 775h-100l28 200h100zM398 1050h-100l28 200h100zM534 775h-100l28 200h100zM674 525h-100l28 200h100zM635 250h-100
l28 200h100zM600 0h-100l28 200h100z" />
    <glyph glyph-name="Z" unicode="Z" 
d="M1172 1575h-100l28 200h100zM997 1575h-100l28 200h100zM1133 1300h-100l28 200h100zM822 1575h-100l28 200h100zM647 1575h-100l28 200h100zM472 1575h-100l28 200h100zM923 1050h-100l28 200h100zM709 775h-100l28 200h100zM499 525h-100l28 200h100zM950 0h-100
l28 200h100zM775 0h-100l28 200h100zM600 0h-100l28 200h100zM285 250h-100l28 200h100zM425 0h-100l28 200h100zM250 0h-100l28 200h100z" />
    <glyph glyph-name="bracketleft" unicode="[" 
d="M997 1575h-100l28 200h100zM822 1575h-100l28 200h100zM647 1575h-100l28 200h100zM608 1300h-100l28 200h100zM573 1050h-100l28 200h100zM534 775h-100l28 200h100zM499 525h-100l28 200h100zM775 0h-100l28 200h100zM460 250h-100l28 200h100zM600 0h-100l28 200h100z
M425 0h-100l28 200h100z" />
    <glyph glyph-name="backslash" unicode="\" 
d="M433 1300h-100l28 200h100zM573 1050h-100l28 200h100zM709 775h-100l28 200h100zM849 525h-100l28 200h100zM985 250h-100l28 200h100z" />
    <glyph glyph-name="bracketright" unicode="]" 
d="M997 1575h-100l28 200h100zM822 1575h-100l28 200h100zM958 1300h-100l28 200h100zM647 1575h-100l28 200h100zM923 1050h-100l28 200h100zM884 775h-100l28 200h100zM849 525h-100l28 200h100zM810 250h-100l28 200h100zM775 0h-100l28 200h100zM600 0h-100l28 200h100z
M425 0h-100l28 200h100z" />
    <glyph glyph-name="asciicircum" unicode="^" 
d="M822 1575h-100l28 200h100zM958 1300h-100l28 200h100zM1098 1050h-100l28 200h100zM608 1300h-100l28 200h100zM398 1050h-100l28 200h100z" />
    <glyph glyph-name="underscore" unicode="_" 
d="M950 0h-100l28 200h100zM775 0h-100l28 200h100zM600 0h-100l28 200h100zM425 0h-100l28 200h100zM250 0h-100l28 200h100z" />
    <glyph glyph-name="grave" unicode="`" 
d="M647 1575h-100l28 200h100zM783 1300h-100l28 200h100zM923 1050h-100l28 200h100z" />
    <glyph glyph-name="a" unicode="a" 
d="M997 1575h-100l28 200h100zM1133 1300h-100l28 200h100zM822 1575h-100l28 200h100zM647 1575h-100l28 200h100zM1098 1050h-100l28 200h100zM1059 775h-100l28 200h100zM433 1300h-100l28 200h100zM1024 525h-100l28 200h100zM398 1050h-100l28 200h100zM849 525h-100
l28 200h100zM985 250h-100l28 200h100zM674 525h-100l28 200h100zM359 775h-100l28 200h100zM499 525h-100l28 200h100zM950 0h-100l28 200h100zM324 525h-100l28 200h100zM285 250h-100l28 200h100zM250 0h-100l28 200h100z" />
    <glyph glyph-name="b" unicode="b" 
d="M997 1575h-100l28 200h100zM1133 1300h-100l28 200h100zM822 1575h-100l28 200h100zM647 1575h-100l28 200h100zM1098 1050h-100l28 200h100zM472 1575h-100l28 200h100zM433 1300h-100l28 200h100zM884 775h-100l28 200h100zM1024 525h-100l28 200h100zM709 775h-100
l28 200h100zM398 1050h-100l28 200h100zM534 775h-100l28 200h100zM985 250h-100l28 200h100zM359 775h-100l28 200h100zM324 525h-100l28 200h100zM775 0h-100l28 200h100zM600 0h-100l28 200h100zM285 250h-100l28 200h100zM425 0h-100l28 200h100zM250 0h-100l28 200h100
z" />
    <glyph glyph-name="c" unicode="c" 
d="M997 1575h-100l28 200h100zM1133 1300h-100l28 200h100zM822 1575h-100l28 200h100zM647 1575h-100l28 200h100zM433 1300h-100l28 200h100zM398 1050h-100l28 200h100zM985 250h-100l28 200h100zM359 775h-100l28 200h100zM324 525h-100l28 200h100zM775 0h-100l28 200
h100zM600 0h-100l28 200h100zM285 250h-100l28 200h100zM425 0h-100l28 200h100z" />
    <glyph glyph-name="d" unicode="d" 
d="M822 1575h-100l28 200h100zM958 1300h-100l28 200h100zM647 1575h-100l28 200h100zM1098 1050h-100l28 200h100zM472 1575h-100l28 200h100zM1059 775h-100l28 200h100zM433 1300h-100l28 200h100zM1024 525h-100l28 200h100zM398 1050h-100l28 200h100zM359 775h-100
l28 200h100zM810 250h-100l28 200h100zM324 525h-100l28 200h100zM600 0h-100l28 200h100zM285 250h-100l28 200h100zM425 0h-100l28 200h100zM250 0h-100l28 200h100z" />
    <glyph glyph-name="e" unicode="e" 
d="M1172 1575h-100l28 200h100zM997 1575h-100l28 200h100zM822 1575h-100l28 200h100zM647 1575h-100l28 200h100zM472 1575h-100l28 200h100zM1059 775h-100l28 200h100zM433 1300h-100l28 200h100zM884 775h-100l28 200h100zM709 775h-100l28 200h100zM398 1050h-100
l28 200h100zM534 775h-100l28 200h100zM359 775h-100l28 200h100zM950 0h-100l28 200h100zM324 525h-100l28 200h100zM775 0h-100l28 200h100zM600 0h-100l28 200h100zM285 250h-100l28 200h100zM425 0h-100l28 200h100zM250 0h-100l28 200h100z" />
    <glyph glyph-name="f" unicode="f" 
d="M1172 1575h-100l28 200h100zM997 1575h-100l28 200h100zM822 1575h-100l28 200h100zM647 1575h-100l28 200h100zM472 1575h-100l28 200h100zM1059 775h-100l28 200h100zM433 1300h-100l28 200h100zM884 775h-100l28 200h100zM709 775h-100l28 200h100zM398 1050h-100
l28 200h100zM534 775h-100l28 200h100zM359 775h-100l28 200h100zM324 525h-100l28 200h100zM285 250h-100l28 200h100zM250 0h-100l28 200h100z" />
    <glyph glyph-name="g" unicode="g" 
d="M997 1575h-100l28 200h100zM822 1575h-100l28 200h100zM647 1575h-100l28 200h100zM1059 775h-100l28 200h100zM433 1300h-100l28 200h100zM884 775h-100l28 200h100zM1024 525h-100l28 200h100zM709 775h-100l28 200h100zM398 1050h-100l28 200h100zM985 250h-100
l28 200h100zM359 775h-100l28 200h100zM950 0h-100l28 200h100zM324 525h-100l28 200h100zM775 0h-100l28 200h100zM600 0h-100l28 200h100zM285 250h-100l28 200h100zM425 0h-100l28 200h100z" />
    <glyph glyph-name="h" unicode="h" 
d="M1172 1575h-100l28 200h100zM1133 1300h-100l28 200h100zM1098 1050h-100l28 200h100zM472 1575h-100l28 200h100zM1059 775h-100l28 200h100zM433 1300h-100l28 200h100zM884 775h-100l28 200h100zM1024 525h-100l28 200h100zM709 775h-100l28 200h100zM398 1050h-100
l28 200h100zM534 775h-100l28 200h100zM985 250h-100l28 200h100zM359 775h-100l28 200h100zM950 0h-100l28 200h100zM324 525h-100l28 200h100zM285 250h-100l28 200h100zM250 0h-100l28 200h100z" />
    <glyph glyph-name="i" unicode="i" 
d="M997 1575h-100l28 200h100zM822 1575h-100l28 200h100zM647 1575h-100l28 200h100zM783 1300h-100l28 200h100zM748 1050h-100l28 200h100zM709 775h-100l28 200h100zM674 525h-100l28 200h100zM635 250h-100l28 200h100zM775 0h-100l28 200h100zM600 0h-100l28 200h100z
M425 0h-100l28 200h100z" />
    <glyph glyph-name="j" unicode="j" 
d="M1172 1575h-100l28 200h100zM997 1575h-100l28 200h100zM822 1575h-100l28 200h100zM958 1300h-100l28 200h100zM923 1050h-100l28 200h100zM884 775h-100l28 200h100zM849 525h-100l28 200h100zM810 250h-100l28 200h100zM600 0h-100l28 200h100zM285 250h-100l28 200
h100zM425 0h-100l28 200h100z" />
    <glyph glyph-name="k" unicode="k" 
d="M1172 1575h-100l28 200h100zM958 1300h-100l28 200h100zM472 1575h-100l28 200h100zM748 1050h-100l28 200h100zM433 1300h-100l28 200h100zM398 1050h-100l28 200h100zM534 775h-100l28 200h100zM674 525h-100l28 200h100zM359 775h-100l28 200h100zM810 250h-100
l28 200h100zM950 0h-100l28 200h100zM324 525h-100l28 200h100zM285 250h-100l28 200h100zM250 0h-100l28 200h100z" />
    <glyph glyph-name="l" unicode="l" 
d="M472 1575h-100l28 200h100zM433 1300h-100l28 200h100zM398 1050h-100l28 200h100zM359 775h-100l28 200h100zM950 0h-100l28 200h100zM324 525h-100l28 200h100zM775 0h-100l28 200h100zM600 0h-100l28 200h100zM285 250h-100l28 200h100zM425 0h-100l28 200h100zM250 0
h-100l28 200h100z" />
    <glyph glyph-name="m" unicode="m" 
d="M1172 1575h-100l28 200h100zM1133 1300h-100l28 200h100zM958 1300h-100l28 200h100zM1098 1050h-100l28 200h100zM472 1575h-100l28 200h100zM608 1300h-100l28 200h100zM1059 775h-100l28 200h100zM748 1050h-100l28 200h100zM433 1300h-100l28 200h100zM1024 525h-100
l28 200h100zM709 775h-100l28 200h100zM398 1050h-100l28 200h100zM985 250h-100l28 200h100zM359 775h-100l28 200h100zM950 0h-100l28 200h100zM324 525h-100l28 200h100zM285 250h-100l28 200h100zM250 0h-100l28 200h100z" />
    <glyph glyph-name="n" unicode="n" 
d="M1172 1575h-100l28 200h100zM1133 1300h-100l28 200h100zM1098 1050h-100l28 200h100zM472 1575h-100l28 200h100zM1059 775h-100l28 200h100zM433 1300h-100l28 200h100zM573 1050h-100l28 200h100zM1024 525h-100l28 200h100zM709 775h-100l28 200h100zM398 1050h-100
l28 200h100zM849 525h-100l28 200h100zM985 250h-100l28 200h100zM359 775h-100l28 200h100zM950 0h-100l28 200h100zM324 525h-100l28 200h100zM285 250h-100l28 200h100zM250 0h-100l28 200h100z" />
    <glyph glyph-name="o" unicode="o" 
d="M997 1575h-100l28 200h100zM1133 1300h-100l28 200h100zM822 1575h-100l28 200h100zM647 1575h-100l28 200h100zM1098 1050h-100l28 200h100zM1059 775h-100l28 200h100zM433 1300h-100l28 200h100zM1024 525h-100l28 200h100zM398 1050h-100l28 200h100zM985 250h-100
l28 200h100zM359 775h-100l28 200h100zM324 525h-100l28 200h100zM775 0h-100l28 200h100zM600 0h-100l28 200h100zM285 250h-100l28 200h100zM425 0h-100l28 200h100z" />
    <glyph glyph-name="p" unicode="p" 
d="M997 1575h-100l28 200h100zM1133 1300h-100l28 200h100zM822 1575h-100l28 200h100zM647 1575h-100l28 200h100zM1098 1050h-100l28 200h100zM472 1575h-100l28 200h100zM433 1300h-100l28 200h100zM884 775h-100l28 200h100zM709 775h-100l28 200h100zM398 1050h-100
l28 200h100zM534 775h-100l28 200h100zM359 775h-100l28 200h100zM324 525h-100l28 200h100zM285 250h-100l28 200h100zM250 0h-100l28 200h100z" />
    <glyph glyph-name="q" unicode="q" 
d="M997 1575h-100l28 200h100zM1133 1300h-100l28 200h100zM822 1575h-100l28 200h100zM647 1575h-100l28 200h100zM1098 1050h-100l28 200h100zM1059 775h-100l28 200h100zM433 1300h-100l28 200h100zM1024 525h-100l28 200h100zM398 1050h-100l28 200h100zM985 250h-100
l28 200h100zM674 525h-100l28 200h100zM359 775h-100l28 200h100zM810 250h-100l28 200h100zM950 0h-100l28 200h100zM324 525h-100l28 200h100zM775 0h-100l28 200h100zM600 0h-100l28 200h100zM285 250h-100l28 200h100zM425 0h-100l28 200h100z" />
    <glyph glyph-name="r" unicode="r" 
d="M997 1575h-100l28 200h100zM1133 1300h-100l28 200h100zM822 1575h-100l28 200h100zM647 1575h-100l28 200h100zM1098 1050h-100l28 200h100zM472 1575h-100l28 200h100zM433 1300h-100l28 200h100zM884 775h-100l28 200h100zM709 775h-100l28 200h100zM398 1050h-100
l28 200h100zM534 775h-100l28 200h100zM674 525h-100l28 200h100zM359 775h-100l28 200h100zM810 250h-100l28 200h100zM950 0h-100l28 200h100zM324 525h-100l28 200h100zM285 250h-100l28 200h100zM250 0h-100l28 200h100z" />
    <glyph glyph-name="s" unicode="s" 
d="M1172 1575h-100l28 200h100zM997 1575h-100l28 200h100zM822 1575h-100l28 200h100zM647 1575h-100l28 200h100zM433 1300h-100l28 200h100zM884 775h-100l28 200h100zM1024 525h-100l28 200h100zM709 775h-100l28 200h100zM398 1050h-100l28 200h100zM534 775h-100
l28 200h100zM985 250h-100l28 200h100zM775 0h-100l28 200h100zM600 0h-100l28 200h100zM425 0h-100l28 200h100zM250 0h-100l28 200h100z" />
    <glyph glyph-name="t" unicode="t" 
d="M1172 1575h-100l28 200h100zM997 1575h-100l28 200h100zM822 1575h-100l28 200h100zM647 1575h-100l28 200h100zM783 1300h-100l28 200h100zM472 1575h-100l28 200h100zM748 1050h-100l28 200h100zM709 775h-100l28 200h100zM674 525h-100l28 200h100zM635 250h-100
l28 200h100zM600 0h-100l28 200h100z" />
    <glyph glyph-name="u" unicode="u" 
d="M1172 1575h-100l28 200h100zM1133 1300h-100l28 200h100zM1098 1050h-100l28 200h100zM472 1575h-100l28 200h100zM1059 775h-100l28 200h100zM433 1300h-100l28 200h100zM1024 525h-100l28 200h100zM398 1050h-100l28 200h100zM985 250h-100l28 200h100zM359 775h-100
l28 200h100zM324 525h-100l28 200h100zM775 0h-100l28 200h100zM600 0h-100l28 200h100zM285 250h-100l28 200h100zM425 0h-100l28 200h100z" />
    <glyph glyph-name="v" unicode="v" 
d="M1172 1575h-100l28 200h100zM1133 1300h-100l28 200h100zM1098 1050h-100l28 200h100zM472 1575h-100l28 200h100zM1059 775h-100l28 200h100zM433 1300h-100l28 200h100zM1024 525h-100l28 200h100zM398 1050h-100l28 200h100zM359 775h-100l28 200h100zM810 250h-100
l28 200h100zM324 525h-100l28 200h100zM460 250h-100l28 200h100zM600 0h-100l28 200h100z" />
    <glyph glyph-name="w" unicode="w" 
d="M1172 1575h-100l28 200h100zM1133 1300h-100l28 200h100zM1098 1050h-100l28 200h100zM472 1575h-100l28 200h100zM1059 775h-100l28 200h100zM433 1300h-100l28 200h100zM1024 525h-100l28 200h100zM709 775h-100l28 200h100zM398 1050h-100l28 200h100zM985 250h-100
l28 200h100zM674 525h-100l28 200h100zM359 775h-100l28 200h100zM635 250h-100l28 200h100zM324 525h-100l28 200h100zM775 0h-100l28 200h100zM285 250h-100l28 200h100zM425 0h-100l28 200h100zM460 250h-100h100z" />
    <glyph glyph-name="x" unicode="x" 
d="M1172 1575h-100l28 200h100zM1133 1300h-100l28 200h100zM472 1575h-100l28 200h100zM923 1050h-100l28 200h100zM433 1300h-100l28 200h100zM573 1050h-100l28 200h100zM709 775h-100l28 200h100zM849 525h-100l28 200h100zM985 250h-100l28 200h100zM499 525h-100
l28 200h100zM950 0h-100l28 200h100zM285 250h-100l28 200h100zM250 0h-100l28 200h100z" />
    <glyph glyph-name="y" unicode="y" 
d="M1172 1575h-100l28 200h100zM1133 1300h-100l28 200h100zM1098 1050h-100l28 200h100zM472 1575h-100l28 200h100zM433 1300h-100l28 200h100zM884 775h-100l28 200h100zM398 1050h-100l28 200h100zM534 775h-100l28 200h100zM674 525h-100l28 200h100zM635 250h-100
l28 200h100zM600 0h-100l28 200h100z" />
    <glyph glyph-name="z" unicode="z" 
d="M1172 1575h-100l28 200h100zM997 1575h-100l28 200h100zM1133 1300h-100l28 200h100zM822 1575h-100l28 200h100zM647 1575h-100l28 200h100zM472 1575h-100l28 200h100zM923 1050h-100l28 200h100zM709 775h-100l28 200h100zM499 525h-100l28 200h100zM950 0h-100
l28 200h100zM775 0h-100l28 200h100zM600 0h-100l28 200h100zM285 250h-100l28 200h100zM425 0h-100l28 200h100zM250 0h-100l28 200h100z" />
    <glyph glyph-name="braceleft" unicode="{" 
d="M997 1575h-100l28 200h100zM958 1300h-100l28 200h100zM748 1050h-100l28 200h100zM534 775h-100l28 200h100zM674 525h-100l28 200h100zM810 250h-100l28 200h100zM775 0h-100l28 200h100z" />
    <glyph glyph-name="bar" unicode="|" 
d="M822 1575h-100l28 200h100zM783 1300h-100l28 200h100zM748 1050h-100l28 200h100zM709 775h-100l28 200h100zM674 525h-100l28 200h100zM635 250h-100l28 200h100zM600 0h-100l28 200h100z" />
    <glyph glyph-name="braceright" unicode="}" 
d="M647 1575h-100l28 200h100zM608 1300h-100l28 200h100zM748 1050h-100l28 200h100zM884 775h-100l28 200h100zM674 525h-100l28 200h100zM460 250h-100l28 200h100zM425 0h-100l28 200h100z" />
    <glyph glyph-name="asciitilde" unicode="~" 
d="M1172 1575h-100l28 200h100zM997 1575h-100l28 200h100zM822 1575h-100l28 200h100zM608 1300h-100l28 200h100zM433 1300h-100l28 200h100z" />
    <glyph glyph-name="DEL" 
d="M1172 1575h-100l28 200h100zM997 1575h-100l28 200h100zM1133 1300h-100l28 200h100zM822 1575h-100l28 200h100zM647 1575h-100l28 200h100zM1098 1050h-100l28 200h100zM472 1575h-100l28 200h100zM1059 775h-100l28 200h100zM433 1300h-100l28 200h100zM1024 525h-100
l28 200h100zM398 1050h-100l28 200h100zM985 250h-100l28 200h100zM359 775h-100l28 200h100zM950 0h-100l28 200h100zM324 525h-100l28 200h100zM775 0h-100l28 200h100zM600 0h-100l28 200h100zM285 250h-100l28 200h100zM425 0h-100l28 200h100zM250 0h-100l28 200h100z
" />
    <glyph glyph-name="c128" 
d="M1172 1575h-100l28 200h100zM997 1575h-100l28 200h100zM1133 1300h-100l28 200h100zM822 1575h-100l28 200h100zM647 1575h-100l28 200h100zM1098 1050h-100l28 200h100zM472 1575h-100l28 200h100zM1059 775h-100l28 200h100zM433 1300h-100l28 200h100zM1024 525h-100
l28 200h100zM398 1050h-100l28 200h100zM985 250h-100l28 200h100zM359 775h-100l28 200h100zM950 0h-100l28 200h100zM324 525h-100l28 200h100zM775 0h-100l28 200h100zM600 0h-100l28 200h100zM285 250h-100l28 200h100zM425 0h-100l28 200h100zM250 0h-100l28 200h100z
" />
    <glyph glyph-name="c129" 
d="M1172 1575h-100l28 200h100zM997 1575h-100l28 200h100zM1133 1300h-100l28 200h100zM822 1575h-100l28 200h100zM647 1575h-100l28 200h100zM1098 1050h-100l28 200h100zM472 1575h-100l28 200h100zM1059 775h-100l28 200h100zM433 1300h-100l28 200h100zM1024 525h-100
l28 200h100zM398 1050h-100l28 200h100zM985 250h-100l28 200h100zM359 775h-100l28 200h100zM950 0h-100l28 200h100zM324 525h-100l28 200h100zM775 0h-100l28 200h100zM600 0h-100l28 200h100zM285 250h-100l28 200h100zM425 0h-100l28 200h100zM250 0h-100l28 200h100z
" />
    <glyph glyph-name="c141" 
d="M1172 1575h-100l28 200h100zM997 1575h-100l28 200h100zM1133 1300h-100l28 200h100zM822 1575h-100l28 200h100zM647 1575h-100l28 200h100zM1098 1050h-100l28 200h100zM472 1575h-100l28 200h100zM1059 775h-100l28 200h100zM433 1300h-100l28 200h100zM1024 525h-100
l28 200h100zM398 1050h-100l28 200h100zM985 250h-100l28 200h100zM359 775h-100l28 200h100zM950 0h-100l28 200h100zM324 525h-100l28 200h100zM775 0h-100l28 200h100zM600 0h-100l28 200h100zM285 250h-100l28 200h100zM425 0h-100l28 200h100zM250 0h-100l28 200h100z
" />
    <glyph glyph-name="c142" 
d="M1172 1575h-100l28 200h100zM997 1575h-100l28 200h100zM1133 1300h-100l28 200h100zM822 1575h-100l28 200h100zM647 1575h-100l28 200h100zM1098 1050h-100l28 200h100zM472 1575h-100l28 200h100zM1059 775h-100l28 200h100zM433 1300h-100l28 200h100zM1024 525h-100
l28 200h100zM398 1050h-100l28 200h100zM985 250h-100l28 200h100zM359 775h-100l28 200h100zM950 0h-100l28 200h100zM324 525h-100l28 200h100zM775 0h-100l28 200h100zM600 0h-100l28 200h100zM285 250h-100l28 200h100zM425 0h-100l28 200h100zM250 0h-100l28 200h100z
" />
    <glyph glyph-name="c143" 
d="M1172 1575h-100l28 200h100zM997 1575h-100l28 200h100zM1133 1300h-100l28 200h100zM822 1575h-100l28 200h100zM647 1575h-100l28 200h100zM1098 1050h-100l28 200h100zM472 1575h-100l28 200h100zM1059 775h-100l28 200h100zM433 1300h-100l28 200h100zM1024 525h-100
l28 200h100zM398 1050h-100l28 200h100zM985 250h-100l28 200h100zM359 775h-100l28 200h100zM950 0h-100l28 200h100zM324 525h-100l28 200h100zM775 0h-100l28 200h100zM600 0h-100l28 200h100zM285 250h-100l28 200h100zM425 0h-100l28 200h100zM250 0h-100l28 200h100z
" />
    <glyph glyph-name="c144" 
d="M1172 1575h-100l28 200h100zM997 1575h-100l28 200h100zM1133 1300h-100l28 200h100zM822 1575h-100l28 200h100zM647 1575h-100l28 200h100zM1098 1050h-100l28 200h100zM472 1575h-100l28 200h100zM1059 775h-100l28 200h100zM433 1300h-100l28 200h100zM1024 525h-100
l28 200h100zM398 1050h-100l28 200h100zM985 250h-100l28 200h100zM359 775h-100l28 200h100zM950 0h-100l28 200h100zM324 525h-100l28 200h100zM775 0h-100l28 200h100zM600 0h-100l28 200h100zM285 250h-100l28 200h100zM425 0h-100l28 200h100zM250 0h-100l28 200h100z
" />
    <glyph glyph-name="c157" 
d="M1172 1575h-100l28 200h100zM997 1575h-100l28 200h100zM1133 1300h-100l28 200h100zM822 1575h-100l28 200h100zM647 1575h-100l28 200h100zM1098 1050h-100l28 200h100zM472 1575h-100l28 200h100zM1059 775h-100l28 200h100zM433 1300h-100l28 200h100zM1024 525h-100
l28 200h100zM398 1050h-100l28 200h100zM985 250h-100l28 200h100zM359 775h-100l28 200h100zM950 0h-100l28 200h100zM324 525h-100l28 200h100zM775 0h-100l28 200h100zM600 0h-100l28 200h100zM285 250h-100l28 200h100zM425 0h-100l28 200h100zM250 0h-100l28 200h100z
" />
    <glyph glyph-name="c158" 
d="M1172 1575h-100l28 200h100zM997 1575h-100l28 200h100zM1133 1300h-100l28 200h100zM822 1575h-100l28 200h100zM647 1575h-100l28 200h100zM1098 1050h-100l28 200h100zM472 1575h-100l28 200h100zM1059 775h-100l28 200h100zM433 1300h-100l28 200h100zM1024 525h-100
l28 200h100zM398 1050h-100l28 200h100zM985 250h-100l28 200h100zM359 775h-100l28 200h100zM950 0h-100l28 200h100zM324 525h-100l28 200h100zM775 0h-100l28 200h100zM600 0h-100l28 200h100zM285 250h-100l28 200h100zM425 0h-100l28 200h100zM250 0h-100l28 200h100z
" />
    <glyph glyph-name="OE" unicode="&#x152;" 
d="M1172 1575h-100l28 200h100zM997 1575h-100l28 200h100zM1133 1300h-100l28 200h100zM822 1575h-100l28 200h100zM958 1300h-100l28 200h100zM647 1575h-100l28 200h100zM1098 1050h-100l28 200h100zM783 1300h-100l28 200h100zM472 1575h-100l28 200h100zM923 1050h-100
l28 200h100zM608 1300h-100l28 200h100zM1059 775h-100l28 200h100zM748 1050h-100l28 200h100zM433 1300h-100l28 200h100zM884 775h-100l28 200h100zM573 1050h-100l28 200h100zM1024 525h-100l28 200h100zM709 775h-100l28 200h100zM398 1050h-100l28 200h100zM849 525
h-100l28 200h100zM534 775h-100l28 200h100zM985 250h-100l28 200h100zM674 525h-100l28 200h100zM359 775h-100l28 200h100zM810 250h-100l28 200h100zM499 525h-100l28 200h100zM950 0h-100l28 200h100zM635 250h-100l28 200h100zM324 525h-100l28 200h100zM775 0h-100
l28 200h100zM460 250h-100l28 200h100zM600 0h-100l28 200h100zM285 250h-100l28 200h100zM425 0h-100l28 200h100zM250 0h-100l28 200h100z" />
    <glyph glyph-name="oe" unicode="&#x153;" 
d="M1172 1575h-100l28 200h100zM997 1575h-100l28 200h100zM1133 1300h-100l28 200h100zM822 1575h-100l28 200h100zM647 1575h-100l28 200h100zM1098 1050h-100l28 200h100zM472 1575h-100l28 200h100zM1059 775h-100l28 200h100zM433 1300h-100l28 200h100zM1024 525h-100
l28 200h100zM398 1050h-100l28 200h100zM985 250h-100l28 200h100zM359 775h-100l28 200h100zM950 0h-100l28 200h100zM324 525h-100l28 200h100zM775 0h-100l28 200h100zM600 0h-100l28 200h100zM285 250h-100l28 200h100zM425 0h-100l28 200h100zM250 0h-100l28 200h100z
" />
    <glyph glyph-name="Scaron" unicode="&#x160;" 
d="M1172 1575h-100l28 200h100zM997 1575h-100l28 200h100zM1133 1300h-100l28 200h100zM822 1575h-100l28 200h100zM958 1300h-100l28 200h100zM647 1575h-100l28 200h100zM1098 1050h-100l28 200h100zM783 1300h-100l28 200h100zM472 1575h-100l28 200h100zM923 1050h-100
l28 200h100zM608 1300h-100l28 200h100zM1059 775h-100l28 200h100zM748 1050h-100l28 200h100zM433 1300h-100l28 200h100zM884 775h-100l28 200h100zM573 1050h-100l28 200h100zM1024 525h-100l28 200h100zM709 775h-100l28 200h100zM398 1050h-100l28 200h100zM849 525
h-100l28 200h100zM534 775h-100l28 200h100zM985 250h-100l28 200h100zM674 525h-100l28 200h100zM359 775h-100l28 200h100zM810 250h-100l28 200h100zM499 525h-100l28 200h100zM950 0h-100l28 200h100zM635 250h-100l28 200h100zM324 525h-100l28 200h100zM775 0h-100
l28 200h100zM460 250h-100l28 200h100zM600 0h-100l28 200h100zM285 250h-100l28 200h100zM425 0h-100l28 200h100zM250 0h-100l28 200h100z" />
    <glyph glyph-name="scaron" unicode="&#x161;" 
d="M1172 1575h-100l28 200h100zM997 1575h-100l28 200h100zM1133 1300h-100l28 200h100zM822 1575h-100l28 200h100zM647 1575h-100l28 200h100zM1098 1050h-100l28 200h100zM472 1575h-100l28 200h100zM1059 775h-100l28 200h100zM433 1300h-100l28 200h100zM1024 525h-100
l28 200h100zM398 1050h-100l28 200h100zM985 250h-100l28 200h100zM359 775h-100l28 200h100zM950 0h-100l28 200h100zM324 525h-100l28 200h100zM775 0h-100l28 200h100zM600 0h-100l28 200h100zM285 250h-100l28 200h100zM425 0h-100l28 200h100zM250 0h-100l28 200h100z
" />
    <glyph glyph-name="Ydieresis" unicode="&#x178;" 
d="M1172 1575h-100l28 200h100zM997 1575h-100l28 200h100zM1133 1300h-100l28 200h100zM822 1575h-100l28 200h100zM647 1575h-100l28 200h100zM1098 1050h-100l28 200h100zM472 1575h-100l28 200h100zM1059 775h-100l28 200h100zM433 1300h-100l28 200h100zM1024 525h-100
l28 200h100zM398 1050h-100l28 200h100zM985 250h-100l28 200h100zM359 775h-100l28 200h100zM950 0h-100l28 200h100zM324 525h-100l28 200h100zM775 0h-100l28 200h100zM600 0h-100l28 200h100zM285 250h-100l28 200h100zM425 0h-100l28 200h100zM250 0h-100l28 200h100z
" />
    <glyph glyph-name="florin" unicode="&#x192;" 
d="M1172 1575h-100l28 200h100zM997 1575h-100l28 200h100zM1133 1300h-100l28 200h100zM822 1575h-100l28 200h100zM958 1300h-100l28 200h100zM647 1575h-100l28 200h100zM1098 1050h-100l28 200h100zM783 1300h-100l28 200h100zM472 1575h-100l28 200h100zM923 1050h-100
l28 200h100zM608 1300h-100l28 200h100zM1059 775h-100l28 200h100zM748 1050h-100l28 200h100zM433 1300h-100l28 200h100zM884 775h-100l28 200h100zM573 1050h-100l28 200h100zM1024 525h-100l28 200h100zM709 775h-100l28 200h100zM398 1050h-100l28 200h100zM849 525
h-100l28 200h100zM534 775h-100l28 200h100zM985 250h-100l28 200h100zM674 525h-100l28 200h100zM359 775h-100l28 200h100zM810 250h-100l28 200h100zM499 525h-100l28 200h100zM950 0h-100l28 200h100zM635 250h-100l28 200h100zM324 525h-100l28 200h100zM775 0h-100
l28 200h100zM460 250h-100l28 200h100zM600 0h-100l28 200h100zM285 250h-100l28 200h100zM425 0h-100l28 200h100zM250 0h-100l28 200h100z" />
    <glyph glyph-name="circumflex" unicode="&#x2c6;" 
d="M1172 1575h-100l28 200h100zM997 1575h-100l28 200h100zM1133 1300h-100l28 200h100zM822 1575h-100l28 200h100zM958 1300h-100l28 200h100zM647 1575h-100l28 200h100zM1098 1050h-100l28 200h100zM783 1300h-100l28 200h100zM472 1575h-100l28 200h100zM923 1050h-100
l28 200h100zM608 1300h-100l28 200h100zM1059 775h-100l28 200h100zM748 1050h-100l28 200h100zM433 1300h-100l28 200h100zM884 775h-100l28 200h100zM573 1050h-100l28 200h100zM1024 525h-100l28 200h100zM709 775h-100l28 200h100zM398 1050h-100l28 200h100zM849 525
h-100l28 200h100zM534 775h-100l28 200h100zM985 250h-100l28 200h100zM674 525h-100l28 200h100zM359 775h-100l28 200h100zM810 250h-100l28 200h100zM499 525h-100l28 200h100zM950 0h-100l28 200h100zM635 250h-100l28 200h100zM324 525h-100l28 200h100zM775 0h-100
l28 200h100zM460 250h-100l28 200h100zM600 0h-100l28 200h100zM285 250h-100l28 200h100zM425 0h-100l28 200h100zM250 0h-100l28 200h100z" />
    <glyph glyph-name="tilde" unicode="&#x2dc;" 
d="M1172 1575h-100l28 200h100zM997 1575h-100l28 200h100zM1133 1300h-100l28 200h100zM822 1575h-100l28 200h100zM958 1300h-100l28 200h100zM647 1575h-100l28 200h100zM1098 1050h-100l28 200h100zM783 1300h-100l28 200h100zM472 1575h-100l28 200h100zM923 1050h-100
l28 200h100zM608 1300h-100l28 200h100zM1059 775h-100l28 200h100zM748 1050h-100l28 200h100zM433 1300h-100l28 200h100zM884 775h-100l28 200h100zM573 1050h-100l28 200h100zM1024 525h-100l28 200h100zM709 775h-100l28 200h100zM398 1050h-100l28 200h100zM849 525
h-100l28 200h100zM534 775h-100l28 200h100zM985 250h-100l28 200h100zM674 525h-100l28 200h100zM359 775h-100l28 200h100zM810 250h-100l28 200h100zM499 525h-100l28 200h100zM950 0h-100l28 200h100zM635 250h-100l28 200h100zM324 525h-100l28 200h100zM775 0h-100
l28 200h100zM460 250h-100l28 200h100zM600 0h-100l28 200h100zM285 250h-100l28 200h100zM425 0h-100l28 200h100zM250 0h-100l28 200h100z" />
    <glyph glyph-name="endash" unicode="&#x2013;" 
d="M1059 775h-100l28 200h100zM884 775h-100l28 200h100zM709 775h-100l28 200h100zM534 775h-100l28 200h100zM359 775h-100l28 200h100z" />
    <glyph glyph-name="emdash" unicode="&#x2014;" 
d="M1059 775h-100l28 200h100zM884 775h-100l28 200h100zM709 775h-100l28 200h100zM534 775h-100l28 200h100zM359 775h-100l28 200h100z" />
    <glyph glyph-name="quoteleft" unicode="&#x2018;" 
d="M997 1575h-100l28 200h100zM822 1575h-100l28 200h100zM783 1300h-100l28 200h100zM923 1050h-100l28 200h100zM150 0z" />
    <glyph glyph-name="quoteright" unicode="&#x2019;" 
d="M822 1575h-100l28 200h100zM647 1575h-100l28 200h100zM783 1300h-100l28 200h100zM573 1050h-100l28 200h100z" />
    <glyph glyph-name="quotesinglbase" unicode="&#x201a;" 
d="M822 1575h-100l28 200h100zM647 1575h-100l28 200h100zM783 1300h-100l28 200h100zM573 1050h-100l28 200h100z" />
    <glyph glyph-name="quotedblleft" unicode="&#x201c;" 
d="M1172 1575h-100l28 200h100zM997 1575h-100l28 200h100zM958 1300h-100l28 200h100zM647 1575h-100l28 200h100zM1098 1050h-100l28 200h100zM472 1575h-100l28 200h100zM433 1300h-100l28 200h100zM573 1050h-100l28 200h100z" />
    <glyph glyph-name="quotedblright" unicode="&#x201d;" 
d="M1172 1575h-100l28 200h100zM997 1575h-100l28 200h100zM1133 1300h-100l28 200h100zM647 1575h-100l28 200h100zM472 1575h-100l28 200h100zM923 1050h-100l28 200h100zM608 1300h-100l28 200h100zM398 1050h-100l28 200h100z" />
    <glyph glyph-name="quotedblbase" unicode="&#x201e;" 
d="M1172 1575h-100l28 200h100zM997 1575h-100l28 200h100zM1133 1300h-100l28 200h100zM647 1575h-100l28 200h100zM472 1575h-100l28 200h100zM1098 1050h-100l28 200h100zM608 1300h-100l28 200h100zM573 1050h-100l28 200h100z" />
    <glyph glyph-name="dagger" unicode="&#x2020;" 
d="M1172 1575h-100l28 200h100zM997 1575h-100l28 200h100zM1133 1300h-100l28 200h100zM822 1575h-100l28 200h100zM958 1300h-100l28 200h100zM647 1575h-100l28 200h100zM1098 1050h-100l28 200h100zM783 1300h-100l28 200h100zM472 1575h-100l28 200h100zM923 1050h-100
l28 200h100zM608 1300h-100l28 200h100zM1059 775h-100l28 200h100zM748 1050h-100l28 200h100zM433 1300h-100l28 200h100zM884 775h-100l28 200h100zM573 1050h-100l28 200h100zM1024 525h-100l28 200h100zM709 775h-100l28 200h100zM398 1050h-100l28 200h100zM849 525
h-100l28 200h100zM534 775h-100l28 200h100zM985 250h-100l28 200h100zM674 525h-100l28 200h100zM359 775h-100l28 200h100zM810 250h-100l28 200h100zM499 525h-100l28 200h100zM950 0h-100l28 200h100zM635 250h-100l28 200h100zM324 525h-100l28 200h100zM775 0h-100
l28 200h100zM460 250h-100l28 200h100zM600 0h-100l28 200h100zM285 250h-100l28 200h100zM425 0h-100l28 200h100zM250 0h-100l28 200h100z" />
    <glyph glyph-name="daggerdbl" unicode="&#x2021;" 
d="M1172 1575h-100l28 200h100zM997 1575h-100l28 200h100zM1133 1300h-100l28 200h100zM822 1575h-100l28 200h100zM958 1300h-100l28 200h100zM647 1575h-100l28 200h100zM1098 1050h-100l28 200h100zM783 1300h-100l28 200h100zM472 1575h-100l28 200h100zM923 1050h-100
l28 200h100zM608 1300h-100l28 200h100zM1059 775h-100l28 200h100zM748 1050h-100l28 200h100zM433 1300h-100l28 200h100zM884 775h-100l28 200h100zM573 1050h-100l28 200h100zM1024 525h-100l28 200h100zM709 775h-100l28 200h100zM398 1050h-100l28 200h100zM849 525
h-100l28 200h100zM534 775h-100l28 200h100zM985 250h-100l28 200h100zM674 525h-100l28 200h100zM359 775h-100l28 200h100zM810 250h-100l28 200h100zM499 525h-100l28 200h100zM950 0h-100l28 200h100zM635 250h-100l28 200h100zM324 525h-100l28 200h100zM775 0h-100
l28 200h100zM460 250h-100l28 200h100zM600 0h-100l28 200h100zM285 250h-100l28 200h100zM425 0h-100l28 200h100zM250 0h-100l28 200h100z" />
    <glyph glyph-name="bullet" unicode="&#x2022;" 
d="M608 1300h-100l28 200h100zM748 1050h-100l28 200h100zM884 775h-100l28 200h100zM573 1050h-100l28 200h100zM709 775h-100l28 200h100zM534 775h-100l28 200h100zM674 525h-100l28 200h100zM499 525h-100l28 200h100zM460 250h-100l28 200h100z" />
    <glyph glyph-name="ellipsis" unicode="&#x2026;" 
d="M985 250h-100l28 200h100zM810 250h-100l28 200h100zM950 0h-100l28 200h100zM775 0h-100l28 200h100zM460 250h-100l28 200h100zM285 250h-100l28 200h100zM425 0h-100l28 200h100zM250 0h-100l28 200h100z" />
    <glyph glyph-name="perthousand" unicode="&#x2030;" 
d="M1172 1575h-100l28 200h100zM997 1575h-100l28 200h100zM1133 1300h-100l28 200h100zM822 1575h-100l28 200h100zM958 1300h-100l28 200h100zM647 1575h-100l28 200h100zM1098 1050h-100l28 200h100zM783 1300h-100l28 200h100zM472 1575h-100l28 200h100zM923 1050h-100
l28 200h100zM608 1300h-100l28 200h100zM1059 775h-100l28 200h100zM748 1050h-100l28 200h100zM433 1300h-100l28 200h100zM884 775h-100l28 200h100zM573 1050h-100l28 200h100zM1024 525h-100l28 200h100zM709 775h-100l28 200h100zM398 1050h-100l28 200h100zM849 525
h-100l28 200h100zM534 775h-100l28 200h100zM985 250h-100l28 200h100zM674 525h-100l28 200h100zM359 775h-100l28 200h100zM810 250h-100l28 200h100zM499 525h-100l28 200h100zM950 0h-100l28 200h100zM635 250h-100l28 200h100zM324 525h-100l28 200h100zM775 0h-100
l28 200h100zM460 250h-100l28 200h100zM600 0h-100l28 200h100zM285 250h-100l28 200h100zM425 0h-100l28 200h100zM250 0h-100l28 200h100z" />
    <glyph glyph-name="guilsinglleft" unicode="&#x2039;" 
d="M1172 1575h-100l28 200h100zM997 1575h-100l28 200h100zM1133 1300h-100l28 200h100zM822 1575h-100l28 200h100zM958 1300h-100l28 200h100zM647 1575h-100l28 200h100zM1098 1050h-100l28 200h100zM783 1300h-100l28 200h100zM472 1575h-100l28 200h100zM923 1050h-100
l28 200h100zM608 1300h-100l28 200h100zM1059 775h-100l28 200h100zM748 1050h-100l28 200h100zM433 1300h-100l28 200h100zM884 775h-100l28 200h100zM573 1050h-100l28 200h100zM1024 525h-100l28 200h100zM709 775h-100l28 200h100zM398 1050h-100l28 200h100zM849 525
h-100l28 200h100zM534 775h-100l28 200h100zM985 250h-100l28 200h100zM674 525h-100l28 200h100zM359 775h-100l28 200h100zM810 250h-100l28 200h100zM499 525h-100l28 200h100zM950 0h-100l28 200h100zM635 250h-100l28 200h100zM324 525h-100l28 200h100zM775 0h-100
l28 200h100zM460 250h-100l28 200h100zM600 0h-100l28 200h100zM285 250h-100l28 200h100zM425 0h-100l28 200h100zM250 0h-100l28 200h100z" />
    <glyph glyph-name="guilsinglright" unicode="&#x203a;" 
d="M1172 1575h-100l28 200h100zM997 1575h-100l28 200h100zM1133 1300h-100l28 200h100zM822 1575h-100l28 200h100zM647 1575h-100l28 200h100zM1098 1050h-100l28 200h100zM472 1575h-100l28 200h100zM1059 775h-100l28 200h100zM433 1300h-100l28 200h100zM1024 525h-100
l28 200h100zM398 1050h-100l28 200h100zM985 250h-100l28 200h100zM359 775h-100l28 200h100zM950 0h-100l28 200h100zM324 525h-100l28 200h100zM775 0h-100l28 200h100zM600 0h-100l28 200h100zM285 250h-100l28 200h100zM425 0h-100l28 200h100zM250 0h-100l28 200h100z
" />
    <glyph glyph-name="trademark" unicode="&#x2122;" 
d="M1172 1575h-100l28 200h100zM997 1575h-100l28 200h100zM1133 1300h-100l28 200h100zM822 1575h-100l28 200h100zM647 1575h-100l28 200h100zM1098 1050h-100l28 200h100zM472 1575h-100l28 200h100zM1059 775h-100l28 200h100zM433 1300h-100l28 200h100zM1024 525h-100
l28 200h100zM398 1050h-100l28 200h100zM985 250h-100l28 200h100zM359 775h-100l28 200h100zM950 0h-100l28 200h100zM324 525h-100l28 200h100zM775 0h-100l28 200h100zM600 0h-100l28 200h100zM285 250h-100l28 200h100zM425 0h-100l28 200h100zM250 0h-100l28 200h100z
" />
  </font>
</defs>
</svg>
